[ create a new paste ] login | about

Link: http://codepad.org/WZpAv9xs    [ raw code | fork ]

Plain Text, pasted on Dec 19:
[CUETools log; Date: 12/19/2018 7:56:19 AM; Version: 2.1.5]
[CTDB TOCID: QVH4455SAIz_QZc..He.IqS4j4c-] found.
Track | CTDB Status
  1   | (74/76) Accurately ripped
  2   | (74/76) Accurately ripped
  3   | (74/76) Accurately ripped
  4   | (74/76) Accurately ripped
  5   | (74/76) Accurately ripped
  6   | (74/76) Accurately ripped
  7   | (74/76) Accurately ripped
  8   | (74/76) Accurately ripped
  9   | (74/76) Accurately ripped
[AccurateRip ID: 000d6cb1-005f3c0d-7d086709] found.
Track   [  CRC   |   V2   ] Status
 01     [ee117110|94fc982b] (00+14/14) Accurately ripped
 02     [ec49211e|23217536] (00+14/14) Accurately ripped
 03     [c3fa0333|43bde9e5] (00+14/14) Accurately ripped
 04     [b029da2d|f558dae4] (00+14/14) Accurately ripped
 05     [0c5b4e5d|6a514a00] (00+14/14) Accurately ripped
 06     [f16b13fb|e66b39bd] (00+14/14) Accurately ripped
 07     [37535655|34ee5b2e] (00+14/14) Accurately ripped
 08     [3cb0734d|63aebaa8] (00+14/14) Accurately ripped
 09     [aede344a|be58e0cd] (00+14/14) Accurately ripped

Track Peak [ CRC32  ] [W/O NULL] [  LOG   ]
 --   99.3 [E4E9934A] [CC5A0E6C]   CRC32   
 01   98.2 [C62DB66D] [67744756]           
 02   99.3 [5D37EC0A] [B4B69A1E]           
 03   96.9 [1006587B] [99AFB863]           
 04   97.6 [56A41721] [6044F97D]           
 05   97.2 [AE0A7A70] [4223E8E2]           
 06   96.8 [A6457270] [F962E893]           
 07   96.9 [3F15EC7E] [2EF126E0]           
 08   96.9 [77DF1D91] [FA7AA74E]           
 09   96.8 [EEBC5235] [88456CA1]           



Create a new paste based on this one


Comments: