[ create a new paste ] login | about

Link: http://codepad.org/WdsvcyvU    [ raw code | fork ]

Plain Text, pasted on Apr 19:
foobar2000 1.3.17 / Dynamic Range Meter 1.1.1
log date: 2018-04-19 09:34:56

--------------------------------------------------------------------------------
Analyzed: Elvis Costello & Burt Bacharach / Painted from Memory
--------------------------------------------------------------------------------

DR         Peak         RMS     Duration Track
--------------------------------------------------------------------------------
DR14      -1.50 dB   -19.65 dB      4:21 01-In the Darkest Place
DR12      -1.72 dB   -16.68 dB      4:36 02-Toledo
DR12      -1.92 dB   -18.20 dB      2:48 03-I Still Have That Other Girl
DR12      -2.21 dB   -17.19 dB      5:11 04-This House Is Empty Now
DR13      -0.78 dB   -16.28 dB      4:43 05-Tears at the Birthday Party
DR12      -1.60 dB   -16.68 dB      3:30 06-Such Unlikely Lovers
DR13      -0.33 dB   -20.36 dB      4:20 07-My Thief
DR11      -2.26 dB   -15.71 dB      4:18 08-The Long Division
DR12      -2.53 dB   -18.62 dB      4:17 09-Painted from Memory
DR13      -0.24 dB   -15.32 dB      4:11 10-The Sweetest Punch
DR13      -2.33 dB   -18.39 dB      4:10 11-What's Her Name Today?
DR13      -0.28 dB   -17.03 dB      6:13 12-God Give Me Strength
--------------------------------------------------------------------------------

Number of tracks:  12
Official DR value: DR13

Samplerate:        44100 Hz
Channels:          2
Bits per sample:   16
Bitrate:           740 kbps
Codec:             FLAC
================================================================================




Create a new paste based on this one


Comments: