[ create a new paste ] login | about

Link: http://codepad.org/WeKeIIi4    [ raw code | fork ]

Plain Text, pasted on Oct 15:
foobar2000 1.6 / Dynamic Range Meter 1.1.1
log date: 2020-10-15 04:27:44

--------------------------------------------------------------------------------
Analyzed: NEKTAR / REMEMBER THE FUTURE
--------------------------------------------------------------------------------

DR         Peak         RMS     Duration Track
--------------------------------------------------------------------------------
DR14      -5.79 dB   -25.58 dB     16:47 01-REMEMBER THE FUTURE - PART ONE
DR13      -5.78 dB   -24.90 dB     19:04 02-REMEMBER THE FUTURE - PART TWO
--------------------------------------------------------------------------------

Number of tracks:  2
Official DR value: DR13

Samplerate:        2822400 Hz / PCM Samplerate: 176400 Hz
Channels:          6
Bits per sample:   1
Bitrate:           16934 kbps
Codec:             DST64
================================================================================

--------------------------------------------------------------------------------
Analyzed: NEKTAR / REMEMBER THE FUTURE
--------------------------------------------------------------------------------

DR         Peak         RMS     Duration Track
--------------------------------------------------------------------------------
DR11      -5.88 dB   -19.90 dB     16:39 01-REMEMBER THE FUTURE - PART ONE
DR11      -5.84 dB   -20.58 dB     18:58 02-REMEMBER THE FUTURE - PART TWO
DR8       -5.84 dB   -17.26 dB      9:53 03-BONUS: REMEMBER THE FUTURE - GERMAN EDIT
DR11      -5.91 dB   -20.08 dB      3:51 04-BONUS: LONELY ROADS
DR11      -5.78 dB   -18.69 dB      2:19 05-BONUS: LET IT GROW
--------------------------------------------------------------------------------

Number of tracks:  5
Official DR value: DR11

Samplerate:        2822400 Hz / PCM Samplerate: 176400 Hz
Channels:          2
Bits per sample:   1
Bitrate:           5645 kbps
Codec:             DST64
================================================================================




Create a new paste based on this one


Comments: