[ create a new paste ] login | about

Link: http://codepad.org/WgI89S7n    [ raw code | fork ]

Plain Text, pasted on Nov 24:
[CUETools log; Date: 10/29/2015 8:30:54 PM; Version: 2.1.5]
[CTDB TOCID: 1eKOytBUKRAnNJ0xqBoakaGk9xw-] found.
Track | CTDB Status
  1   | (38/39) Accurately ripped
  2   | (38/39) Accurately ripped
  3   | (38/39) Accurately ripped
  4   | (38/39) Accurately ripped
  5   | (38/39) Accurately ripped
  6   | (38/39) Accurately ripped
  7   | (38/39) Accurately ripped
  8   | (38/39) Accurately ripped
  9   | (38/39) Accurately ripped
 10   | (38/39) Accurately ripped
 11   | (39/39) Accurately ripped
[AccurateRip ID: 00125030-00a2a73e-7a0c490b] found.
Track   [  CRC   |   V2   ] Status
 01     [c09285ea|575a4e75] (03+42/45) Accurately ripped
 02     [b571b5f9|7ec599c1] (03+42/45) Accurately ripped
 03     [6bafad94|569c484e] (03+42/45) Accurately ripped
 04     [41f112d4|033aeba9] (03+42/45) Accurately ripped
 05     [2ecb6bec|bee9e356] (03+42/45) Accurately ripped
 06     [56cc5e1f|3377d124] (03+42/45) Accurately ripped
 07     [8917ca5a|67943a92] (03+42/45) Accurately ripped
 08     [a9f24126|73ff1ba3] (03+42/45) Accurately ripped
 09     [1fe0214a|54422d81] (03+42/45) Accurately ripped
 10     [d4e21abe|03694635] (03+42/45) Accurately ripped
 11     [7813bdd8|eed8b63d] (03+41/44) Accurately ripped

Track Peak [ CRC32  ] [W/O NULL] [  LOG   ]
 --   97.7 [95504A88] [A289C383]           
 01   53.3 [F4CAD131] [3D916123]   CRC32   
 02   97.7 [CE0773A0] [5BE9141A]   CRC32   
 03   97.7 [9CB5A881] [A6BE78F5]   CRC32   
 04   97.7 [57784610] [D900BA30]   CRC32   
 05   97.7 [698BF25C] [2A332991]   CRC32   
 06   97.7 [DE414FF9] [D78E0265]   CRC32   
 07   97.7 [AE05E316] [6DC06DFA]   CRC32   
 08   97.7 [4DBCA38D] [BDC8B6D9]   CRC32   
 09   97.7 [58EA1776] [7BE650FD]   CRC32   
 10   97.7 [5A2B7502] [5468E420]   CRC32   
 11   97.7 [5C414831] [51088A3C]   CRC32   



Create a new paste based on this one


Comments: