[ create a new paste ] login | about

Link: http://codepad.org/Wi7hBp3q    [ raw code | fork ]

Plain Text, pasted on Jul 29:
Exact Audio Copy V1.3 from 2. September 2016

EAC extraction logfile from 21. July 2019, 9:37

Tangerine Dream / Encore

Used drive  : Optiarc DVD RW AD-7280S   Adapter: 1  ID: 0

Read mode               : Secure
Utilize accurate stream : Yes
Defeat audio cache      : Yes
Make use of C2 pointers : No

Read offset correction                      : 48
Overread into Lead-In and Lead-Out          : No
Fill up missing offset samples with silence : Yes
Delete leading and trailing silent blocks   : No
Null samples used in CRC calculations       : Yes
Used interface                              : Native Win32 interface for Win NT & 2000

Used output format : Internal WAV Routines
Sample format      : 44.100 Hz; 16 Bit; Stereo


TOC of the extracted CD

     Track |   Start  |  Length  | Start sector | End sector 
    ---------------------------------------------------------
        1  |  0:00.00 | 16:27.25 |         0    |    74049   
        2  | 16:27.25 | 19:56.42 |     74050    |   163791   
        3  | 36:23.67 | 18:08.13 |    163792    |   245404   
        4  | 54:32.05 | 17:55.15 |    245405    |   326044   
        5  | 72:27.20 |  3:16.63 |    326045    |   340807   
        6  | 75:44.08 |  4:49.26 |    340808    |   362508   


Range status and errors

Selected range

     Filename C:\Tangerine Dream\2019 In Search Of Hades (18-Disc Box Set Universal Music)\CD14 1977 Encore\Tangerine Dream - Encore.wav

     Peak level 98.6 %
     Extraction speed 4.7 X
     Range quality 100.0 %
     Test CRC E4D3A826
     Copy CRC E4D3A826
     Copy OK

No errors occurred

 
AccurateRip summary
 
Track  1  not present in database
Track  2  not present in database
Track  3  not present in database
Track  4  not present in database
Track  5  not present in database
Track  6  not present in database
 
None of the tracks are present in the AccurateRip database

End of status report

---- CUETools DB Plugin V2.1.6

[CTDB TOCID: sINzif8lge76.6xmXoodpelmNMg-] found
Submit result: sINzif8lge76.6xmXoodpelmNMg- has been confirmed
Track | CTDB Status
  1   | (68/68) Accurately ripped
  2   | (68/68) Accurately ripped
  3   | (68/68) Accurately ripped
  4   | (67/68) Accurately ripped
  5   | (68/68) Accurately ripped
  6   | (67/68) Accurately ripped


==== Log checksum 218A057E50289DCCD39DE12C914F37521ADF45DECE6A0358ABCB9D23C54487E7 ====



Create a new paste based on this one


Comments: