[ create a new paste ] login | about

Link: http://codepad.org/WiWKsgAU    [ raw code | fork ]

Plain Text, pasted on Apr 20:
foobar2000 1.4.1 / Dynamic Range Meter 1.1.1
log date: 2019-04-20 07:50:52

--------------------------------------------------------------------------------
Analyzed: The 3 Sounds / Bottoms UP!
--------------------------------------------------------------------------------

DR         Peak         RMS     Duration Track
--------------------------------------------------------------------------------
DR14      -1.27 dB   -18.45 dB      4:06 01-Besame Mucho
DR12      -0.69 dB   -17.47 dB      5:12 02-Angel Eyes
DR15      -2.31 dB   -20.23 dB      4:51 03-Time After Time
DR14      -2.37 dB   -18.47 dB      6:05 04-Love Walked In
DR16      -1.92 dB   -20.76 dB      4:53 05-I Could Write a Book
DR15      -1.74 dB   -19.98 dB      4:54 06-Jinne Lou
DR14      -1.40 dB   -18.33 dB      3:07 07-Nothing Ever Changes My Love for You
DR13      -0.01 dB   -17.28 dB      6:51 08-Falling in Love With Love
--------------------------------------------------------------------------------

Number of tracks:  8
Official DR value: DR14

Samplerate:        88200 Hz
Channels:          2
Bits per sample:   24
Bitrate:           2740 kbps
Codec:             FLAC
================================================================================




Create a new paste based on this one


Comments: