[ create a new paste ] login | about

Link: http://codepad.org/Wlodnw9w    [ raw code | fork ]

Plain Text, pasted on Feb 4:
CD-QUALITY
----------

foobar2000 1.3.16 / Dynamic Range Meter 1.1.1
log date: 2017-08-21 12:55:20

--------------------------------------------------------------------------------
Analyzed: The Beatles / Let It Be... Naked  (Japan LP)
--------------------------------------------------------------------------------

DR         Peak         RMS     Duration Track
--------------------------------------------------------------------------------
DR13      -0.26 dB   -14.82 dB      2:35 01-Get Back
DR12      -0.51 dB   -15.43 dB      3:38 02-Dig a Pony
DR14      -0.34 dB   -17.17 dB      2:28 03-For You Blue
DR11      -0.98 dB   -15.90 dB      3:34 04-The Long and Winding Road
DR13      -1.52 dB   -16.12 dB      3:21 05-Two of Us
DR11      -2.04 dB   -15.29 dB      3:33 06-I've Got a Feeling
DR12      -0.20 dB   -13.36 dB      2:44 07-One After 909
DR12      -1.19 dB   -14.95 dB      3:19 08-Don't Let Me Down
DR12      -1.81 dB   -15.60 dB      2:22 09-I Me Mine
DR11      -3.19 dB   -18.14 dB      3:38 10-Across the Universe
DR12      -1.03 dB   -16.67 dB      3:56 11-Let It Be
--------------------------------------------------------------------------------

Number of tracks:  11
Official DR value: DR12

Samplerate:        44100 Hz
Channels:          2
Bits per sample:   16
Bitrate:           739 kbps
Codec:             FLAC
================================================================================



HI-RES
------

foobar2000 1.3.16 / Dynamic Range Meter 1.1.1
log date: 2017-08-21 12:54:39

--------------------------------------------------------------------------------
Analyzed: The Beatles / Let It Be... Naked  (Japan LP)
--------------------------------------------------------------------------------

DR         Peak         RMS     Duration Track
--------------------------------------------------------------------------------
DR13      -0.26 dB   -14.81 dB      2:35 01-Get Back
DR12      -0.35 dB   -15.43 dB      3:38 02-Dig a Pony
DR14      -0.28 dB   -17.17 dB      2:28 03-For You Blue
DR11      -0.96 dB   -15.90 dB      3:34 04-The Long and Winding Road
DR13      -1.49 dB   -16.11 dB      3:21 05-Two of Us
DR11      -1.74 dB   -15.29 dB      3:33 06-I've Got a Feeling
DR12      -0.21 dB   -13.36 dB      2:44 07-One After 909
DR12      -1.23 dB   -14.95 dB      3:19 08-Don't Let Me Down
DR12      -1.80 dB   -15.60 dB      2:22 09-I Me Mine
DR12      -3.08 dB   -18.14 dB      3:38 10-Across the Universe
DR12      -0.89 dB   -16.66 dB      3:56 11-Let It Be
--------------------------------------------------------------------------------

Number of tracks:  11
Official DR value: DR12

Samplerate:        96000 Hz
Channels:          2
Bits per sample:   24
Bitrate:           2705 kbps
Codec:             FLAC
================================================================================




Create a new paste based on this one


Comments: