[ create a new paste ] login | about

Link: http://codepad.org/Wp0qTUh7    [ raw code | fork ]

Plain Text, pasted on Jan 22:
foobar2000 1.5 / Dynamic Range Meter 1.1.1
log date: 2020-01-22 19:18:39

--------------------------------------------------------------------------------
Analyzed: Junior Wells / Hoodoo Man Blues
--------------------------------------------------------------------------------

DR         Peak         RMS     Duration Track
--------------------------------------------------------------------------------
DR11      -1.14 dB   -16.06 dB      2:54 01-Snatch It Back and Hold It
DR12      -0.68 dB   -17.56 dB      4:09 02-Ships on the Ocean
DR11      -2.15 dB   -16.16 dB      3:57 03-Good Morning Schoolgirl
DR11      -1.70 dB   -15.93 dB      2:11 04-Hound Dog
DR13      -0.46 dB   -17.65 dB      3:49 05-In the Wee Wee Hours
DR10      -1.98 dB   -15.76 dB      3:16 06-Hey Lawdy Mama
DR12      -1.58 dB   -16.60 dB      2:09 07-Hoodoo Man Blues
DR11      -2.97 dB   -16.98 dB      4:51 08-Early in the Morning
DR11      -1.29 dB   -16.09 dB      3:45 09-We're Ready
DR12      -1.27 dB   -16.58 dB      2:27 10-You Don't Love Me, Baby
DR9       -2.77 dB   -16.63 dB      2:16 11-Chitlin con Carne
DR11      -1.38 dB   -15.37 dB      4:16 12-Yonder Wall
--------------------------------------------------------------------------------

Number of tracks:  12
Official DR value: DR11

Samplerate:        44100 Hz
Channels:          2
Bits per sample:   16
Bitrate:           746 kbps
Codec:             FLAC
================================================================================




Create a new paste based on this one


Comments: