[ create a new paste ] login | about

Link: http://codepad.org/Wt6z2kqw    [ raw code | fork ]

Plain Text, pasted on May 12:
[CUETools log; Date: 5/12/2016 5:57:03 AM; Version: 2.1.5]
HDCD: peak extend: none, transient filter: some, gain: none
[CTDB TOCID: zjmbwHtbT0gDGOrHuIVieukfMDU-] found.
Track | CTDB Status
  1   | (23/23) Accurately ripped
  2   | (23/23) Accurately ripped
  3   | (23/23) Accurately ripped
  4   | (23/23) Accurately ripped
  5   | (23/23) Accurately ripped
  6   | (23/23) Accurately ripped
  7   | (23/23) Accurately ripped
  8   | (23/23) Accurately ripped
  9   | (23/23) Accurately ripped
 10   | (23/23) Accurately ripped
 11   | (23/23) Accurately ripped
 12   | (22/23) Accurately ripped
[AccurateRip ID: 000d8854-007c28d8-9906af0c] found.
Track   [  CRC   |   V2   ] Status
 01     [62e1bb61|7761448e] (30+37/67) Accurately ripped
 02     [82b2506e|835d0893] (30+37/67) Accurately ripped
 03     [32f1933d|1d0af4f2] (30+37/67) Accurately ripped
 04     [a8adfc28|4fbd9f21] (30+37/67) Accurately ripped
 05     [341af93f|ce715628] (30+37/67) Accurately ripped
 06     [e0caffb1|18f69d84] (30+37/67) Accurately ripped
 07     [c8c8e116|e71aaa84] (30+37/67) Accurately ripped
 08     [1d885340|a7b91898] (30+37/67) Accurately ripped
 09     [a0d0f976|eb778936] (30+37/67) Accurately ripped
 10     [ee848171|d288c361] (30+37/67) Accurately ripped
 11     [9e16b4d7|f54f1a68] (30+37/67) Accurately ripped
 12     [c1e71532|8d599736] (30+37/67) Accurately ripped

Track Peak [ CRC32  ] [W/O NULL] [  LOG   ]
 --  100.0 [2D9D3F96] [4AC75456]   CRC32   
 01   90.1 [BCDED972] [4E83A05D]           
 02  100.0 [2FB3916E] [D426064A]           
 03   93.8 [B6CC9C95] [B33B71E7]           
 04   95.3 [E2933C4E] [D7E114F4]           
 05   93.1 [0EE3CD59] [34F9BC00]           
 06   84.4 [D82ABA47] [53B18452]           
 07   93.1 [664EE5C1] [14A8ED06]           
 08   75.5 [68A51770] [853ABC8B]           
 09   82.6 [82287224] [2B792717]           
 10   90.4 [071EB531] [0006C3E9]           
 11   91.2 [B9344070] [6DF1DEAB]           
 12   63.1 [44CFA194] [BCA384C9]           



Create a new paste based on this one


Comments: