[ create a new paste ] login | about

Link: http://codepad.org/WvQapauT    [ raw code | fork ]

Plain Text, pasted on May 8:
foobar2000 1.4.1 / Dynamic Range Meter 1.1.1
log date: 2019-05-07 23:10:16

--------------------------------------------------------------------------------
Analyzed: MILES DAVIS / KIND OF BLUE
--------------------------------------------------------------------------------

DR         Peak         RMS     Duration Track
--------------------------------------------------------------------------------
DR14      -2.01 dB   -23.54 dB      9:28 01-So What
DR14      -4.24 dB   -24.49 dB      9:46 02-Freddie Freeloader
DR14      -7.01 dB   -29.29 dB      5:36 03-Blue in Green
DR15      -5.02 dB   -25.19 dB     11:36 04-All Blues
DR15      -6.80 dB   -27.82 dB      9:24 05-Flamenco Sketches
DR15      -6.47 dB   -26.06 dB      9:31 06-Flamenco Sketches (alternate take)
--------------------------------------------------------------------------------

Number of tracks:  6
Official DR value: DR14

Samplerate:        88200 Hz
Channels:          2
Bits per sample:   24
Bitrate:           2443 kbps
Codec:             FLAC
================================================================================




Create a new paste based on this one


Comments: