[ create a new paste ] login | about

Link: http://codepad.org/WwkiRmRE    [ raw code | fork ]

Plain Text, pasted on May 15:
foobar2000 1.4.1 / Dynamic Range Meter 1.1.1
log date: 2019-05-14 23:04:58

--------------------------------------------------------------------------------
Analyzed: Alice Cooper / Rock 'N' Roll High School (1)
          Brian Eno / Rock 'N' Roll High School (2)
          Brownsville Station / Rock 'N' Roll High School (3)
          Chuck Berry / Rock 'N' Roll High School (4)
          Devo / Rock 'N' Roll High School (5)
          Eddie And The Hot Rods / Rock 'N' Roll High School (6)
          Nick Lowe / Rock 'N' Roll High School (7)
          P.J. Soles / Rock 'N' Roll High School (8)
          Paley Brothers / Ramones / Rock 'N' Roll High School (9)
          Ramones / Rock 'N' Roll High School (10-12)
          Todd Rundgren / Rock 'N' Roll High School (13)
--------------------------------------------------------------------------------

DR         Peak         RMS     Duration Track
--------------------------------------------------------------------------------
DR10      -5.98 dB   -18.44 dB      3:26 13-School's Out
DR12      -2.59 dB   -19.83 dB      2:02 06-Energy Fools The Magician
DR12      -3.66 dB   -18.66 dB      2:56 10-Smoking In The Boys' Room
DR12      -3.41 dB   -17.95 dB      2:42 11-School Days
DR13      -4.06 dB   -19.18 dB      3:46 08-Come Back Jonee
DR14      -2.10 dB   -18.88 dB      2:55 09-Teenage Depression
DR11      -3.86 dB   -17.96 dB      2:29 05-So It Goes
DR14      -3.19 dB   -19.07 dB      2:11 07-Rock 'N' Roll High School
DR12      -2.73 dB   -16.97 dB      2:11 03-Come On Let's Go
DR13      -1.39 dB   -16.10 dB      2:19 01-Rock 'N' Roll High School
DR12      -2.19 dB   -16.48 dB      3:01 02-I Want You Around
DR15       0.00 dB   -16.99 dB     10:59 04-Ramones Medley
DR13      -3.55 dB   -18.62 dB      2:22 12-A Dream Goes On Forever
--------------------------------------------------------------------------------

Number of tracks:  13
Official DR value: DR13

Samplerate:        44100 Hz
Channels:          2
Bits per sample:   16
Bitrate:           715 kbps
Codec:             FLAC
================================================================================




Create a new paste based on this one


Comments: