[ create a new paste ] login | about

Link: http://codepad.org/WyloWlyT    [ raw code | fork ]

Plain Text, pasted on Nov 29:
1
2
3
4
5
6
7
8
9
10
11
12
13
14
15
16
17
18
19
20
21
22
23
24
25
26
27
28
29
30
31
32
33
34
35
36
37
38
39
40
41
42
43
44
45
46
47
48
49
50
51
52
53
54
55
56
57
58
59
60
61
62
63
64
65
66
67
68
69
70
71
72
73
74
75
76
77
78
79
80
81
82
83
84
85
86
87
88
89
90
91
92
93
94
95
96
97
98
99
100
101
102
103
104
105
106
107
108
109
110
111
112
113
114
115
116
117
118
119
120
121
122
123
124
125
126
127
128
129
130
131
132
133
134
135
136
137
138
139
140
141
142
143
144
145
146
147
148
149
150
151
152
153
154
155
156
157
158
159
160
161
162
163
164
165
166
167
168
169
170
171
172
173
174
175
176
177
178
179
180
181
182
183
184
185
186
187
188
189
190
191
192
193
194
195
196
197
198
199
200
201
202
203
204
205
206
207
208
209
210
211
212
213
214
215
216
217
218
219
220
221
222
223
224
225
226
227
228
229
230
231
232
233
234
235
236
237
238
239
240
241
242
243
244
245
246
247
248
249
250
251
252
253
254
255
256
257
258
259
260
261
262
263
264
265
266
267
268
269
270
271
272
273
274
275
276
277
278
279
280
281
282
283
284
285
286
287
288
289
290
291
292
293
294
295
296
297
298
299
300
301
302
303
304
305
306
307
308
309
310
311
312
313
314
315
316
317
318
319
320
321
322
323
324
325
326
327
328
329
330
331
332
333
334
335
336
337
338
339
340
341
342
343
344
345
346
347
348
349
350
351
352
353
354
355
356
357
358
359
360
361
362
363
364
365
366
367
368
369
370
371
372
373
374
375
376
377
378
379
380
381
382
383
384
385
386
387
388
389
390
391
392
393
394
395
396
397
398
399
400
401
402
403
404
405
406
407
408
409
410
411
412
413
414
415
416
417
418
419
420
421
422
423
424
425
426
427
428
429
430
431
432
433
434
435
436
437
438
439
440
441
442
443
444
445
446
447
448
449
450
451
452
453
454
455
456
457
458
459
460
461
462
463
464
465
466
467
468
469
470
471
472
473
474
475
476
477
478
479
480
481
482
483
484
485
486
487
488
489
490
491
492
493
494
495
496
497
498
499
500
501
502
503
504
505
506
507
508
509
510
511
512
513
514
515
516
517
518
519
520
521
522
523
524
525
526
527
528
529
530
531
532
533
534
535
536
537
538
539
540
541
542
543
544
545
546
547
548
549
550
551
552
553
554
555
556
557
558
559
560
561
562
563
564
565
566
Disc Title:     Days Of Future Passed Live (2018) [BD]
Disc Size:      37,490,239,324 bytes
Protection:     AACS
BD-Java:        No
BDInfo:         0.5.8

Notes:          

BDINFO HOME:
  Cinema Squid
    http://www.cinemasquid.com/blu-ray/tools/bdinfo

INCLUDES FORUMS REPORT FOR:
  AVS Forum Blu-ray Audio and Video Specifications Thread
    http://www.avsforum.com/avs-vb/showthread.php?t=1155731


********************
PLAYLIST: 00002.MPLS
********************

<--- BEGIN FORUMS PASTE --->
[code]
                                                                                                                Total   Video                                             
Title                                                           Codec   Length  Movie Size      Disc Size       Bitrate Bitrate Main Audio Track                          Secondary Audio Track
-----                                                           ------  ------- --------------  --------------  ------- ------- ------------------                        ---------------------
00002.MPLS                                                      AVC     1:54:20 31,391,428,608  37,490,239,324  36.60   29.99   LPCM 2.0 1536Kbps (48kHz/16-bit)          DTS-HD Master 5.1 3023Kbps (48kHz/16-bit)
[/code]

[code]

DISC INFO:

Disc Title:     Days Of Future Passed Live (2018) [BD]
Disc Size:      37,490,239,324 bytes
Protection:     AACS
BD-Java:        No
BDInfo:         0.5.8

PLAYLIST REPORT:

Name:                   00002.MPLS
Length:                 1:54:20.812 (h:m:s.ms)
Size:                   31,391,428,608 bytes
Total Bitrate:          36.60 Mbps

VIDEO:

Codec                   Bitrate             Description     
-----                   -------             -----------     
MPEG-4 AVC Video        29990 kbps          1080p / 23.976 fps / 16:9 / High Profile 4.1

AUDIO:

Codec                           Language        Bitrate         Description     
-----                           --------        -------         -----------     
LPCM Audio                      English         1536 kbps       2.0 / 48 kHz / 1536 kbps / 16-bit
DTS-HD Master Audio             English         3023 kbps       5.1 / 48 kHz / 3023 kbps / 16-bit (DTS Core: 5.1 / 48 kHz / 1509 kbps / 16-bit)

FILES:

Name            Time In         Length          Size            Total Bitrate   
----            -------         ------          ----            -------------   
00002.M2TS      0:00:00.000     1:54:19.811     31,391,404,032  36,609          
00009.M2TS      1:54:19.811     0:00:01.000     24,576          196             

CHAPTERS:

Number          Time In         Length          Avg Video Rate  Max 1-Sec Rate  Max 1-Sec Time  Max 5-Sec Rate  Max 5-Sec Time  Max 10Sec Rate  Max 10Sec Time  Avg Frame Size  Max Frame Size  Max Frame Time  
------          -------         ------          --------------  --------------  --------------  --------------  --------------  --------------  --------------  --------------  --------------  --------------  
1               0:00:00.000     0:07:34.829     30,144 kbps     45,104 kbps     00:00:40.123    37,176 kbps     00:01:36.888    35,213 kbps     00:01:36.262    157,142 bytes   466,392 bytes   00:01:40.767    
2               0:07:34.829     0:04:07.538     31,201 kbps     39,713 kbps     00:10:23.080    36,706 kbps     00:08:10.323    36,063 kbps     00:08:10.781    162,668 bytes   504,430 bytes   00:09:07.296    
3               0:11:42.368     0:05:55.897     28,821 kbps     40,800 kbps     00:13:58.796    36,463 kbps     00:13:56.168    34,755 kbps     00:13:41.237    150,257 bytes   547,775 bytes   00:12:21.240    
4               0:17:38.265     0:05:06.764     31,005 kbps     41,391 kbps     00:19:07.646    35,936 kbps     00:18:03.999    33,700 kbps     00:19:58.030    161,644 bytes   529,299 bytes   00:17:45.606    
5               0:22:45.030     0:05:21.779     28,707 kbps     39,712 kbps     00:25:00.665    36,469 kbps     00:26:17.867    35,721 kbps     00:26:17.867    149,665 bytes   552,842 bytes   00:26:20.912    
6               0:28:06.810     0:05:15.356     30,243 kbps     40,199 kbps     00:28:49.310    37,156 kbps     00:28:45.306    35,986 kbps     00:28:41.636    157,675 bytes   522,916 bytes   00:30:39.963    
7               0:33:22.166     0:08:16.037     26,714 kbps     37,144 kbps     00:40:16.622    35,048 kbps     00:37:17.652    33,583 kbps     00:38:56.000    139,273 bytes   456,448 bytes   00:40:25.339    
8               0:41:38.204     0:05:28.745     29,739 kbps     39,796 kbps     00:44:55.818    37,286 kbps     00:44:37.424    36,050 kbps     00:44:33.128    155,048 bytes   487,625 bytes   00:42:11.695    
9               0:47:06.949     0:04:11.251     29,909 kbps     41,600 kbps     00:49:24.503    36,056 kbps     00:48:32.326    35,173 kbps     00:48:26.862    155,932 bytes   461,106 bytes   00:51:03.310    
10              0:51:18.200     0:04:48.663     28,207 kbps     40,312 kbps     00:54:51.621    36,982 kbps     00:52:26.810    36,350 kbps     00:52:21.721    147,059 bytes   557,385 bytes   00:52:30.272    
11              0:56:06.863     0:01:06.316     30,747 kbps     38,818 kbps     00:56:46.903    36,336 kbps     00:56:42.899    35,509 kbps     00:56:39.771    160,303 bytes   475,961 bytes   00:56:55.954    
12              0:57:13.179     0:00:50.300     30,750 kbps     37,049 kbps     00:57:17.517    35,369 kbps     00:57:14.055    34,073 kbps     00:57:14.055    160,315 bytes   547,988 bytes   00:57:49.257    
13              0:58:03.480     0:04:15.338     30,802 kbps     39,465 kbps     00:59:01.329    35,861 kbps     00:58:34.469    35,262 kbps     01:00:53.024    160,586 bytes   570,725 bytes   01:00:06.185    
14              1:02:18.818     0:00:25.608     24,307 kbps     34,552 kbps     01:02:34.459    32,251 kbps     01:02:33.458    30,635 kbps     01:02:32.457    126,724 bytes   449,243 bytes   01:02:44.427    
15              1:02:44.427     0:04:07.997     30,959 kbps     41,215 kbps     01:04:40.835    36,851 kbps     01:03:06.073    36,264 kbps     01:03:00.526    161,406 bytes   578,772 bytes   01:06:13.010    
16              1:06:52.425     0:01:59.244     30,900 kbps     40,786 kbps     01:07:12.737    39,182 kbps     01:07:12.570    35,560 kbps     01:07:12.069    161,098 bytes   527,089 bytes   01:08:33.609    
17              1:08:51.669     0:03:50.939     31,640 kbps     40,847 kbps     01:11:21.318    35,445 kbps     01:08:54.964    34,060 kbps     01:08:53.546    164,955 bytes   503,216 bytes   01:08:57.550    
18              1:12:42.608     0:05:44.344     31,671 kbps     39,324 kbps     01:17:15.339    36,781 kbps     01:17:14.838    35,973 kbps     01:17:14.338    165,116 bytes   534,041 bytes   01:17:32.814    
19              1:18:26.952     0:03:51.606     31,916 kbps     42,850 kbps     01:20:52.305    37,128 kbps     01:19:32.267    36,359 kbps     01:19:29.598    166,397 bytes   509,944 bytes   01:20:08.970    
20              1:22:18.558     0:00:42.083     32,192 kbps     35,488 kbps     01:22:56.972    34,830 kbps     01:22:55.261    33,845 kbps     01:22:30.195    167,836 bytes   401,459 bytes   01:22:48.546    
21              1:23:00.642     0:03:00.054     29,991 kbps     37,834 kbps     01:25:44.931    36,148 kbps     01:25:03.014    34,350 kbps     01:24:58.009    156,358 bytes   553,701 bytes   01:25:45.682    
22              1:26:00.697     0:00:24.607     32,417 kbps     39,423 kbps     01:26:20.341    35,793 kbps     01:26:17.338    34,666 kbps     01:26:12.333    169,008 bytes   568,560 bytes   01:26:08.705    
23              1:26:25.305     0:03:25.163     32,788 kbps     41,243 kbps     01:26:49.954    35,658 kbps     01:26:49.454    35,183 kbps     01:26:36.024    170,941 bytes   521,410 bytes   01:26:57.587    
24              1:29:50.468     0:01:08.818     30,678 kbps     38,879 kbps     01:30:22.041    36,264 kbps     01:30:18.037    34,497 kbps     01:30:12.990    159,941 bytes   555,706 bytes   01:30:04.482    
25              1:30:59.287     0:06:30.765     30,676 kbps     44,707 kbps     01:35:54.498    38,731 kbps     01:35:50.911    35,448 kbps     01:31:55.134    159,930 bytes   594,342 bytes   01:36:12.558    
26              1:37:30.052     0:04:01.574     29,848 kbps     43,667 kbps     01:39:50.275    38,672 kbps     01:39:46.105    36,351 kbps     01:39:45.104    155,611 bytes   608,431 bytes   01:40:53.630    
27              1:41:31.627     0:06:35.520     31,437 kbps     41,907 kbps     01:46:16.787    37,349 kbps     01:41:37.925    34,816 kbps     01:46:00.896    163,898 bytes   583,845 bytes   01:45:01.878    
28              1:48:07.147     0:06:12.663     26,925 kbps     39,775 kbps     01:52:17.605    35,355 kbps     01:50:56.066    34,764 kbps     01:52:58.062    140,374 bytes   540,462 bytes   01:52:59.439    
29              1:54:19.811     0:00:01.001     75 kbps         0 kbps          00:00:00.000    0 kbps          00:00:00.000    0 kbps          00:00:00.000    407 bytes       2,424 bytes     01:54:20.562    

STREAM DIAGNOSTICS:

File            PID             Type            Codec           Language                Seconds                 Bitrate                 Bytes           Packets         
----            ---             ----            -----           --------                --------------          --------------          -------------   -----           
00002.M2TS      4113 (0x1011)   0x1B            AVC                                     6859.728                29,995                  25,719,668,079  139,876,992     
00002.M2TS      4352 (0x1100)   0x80            LPCM            eng (English)           6859.728                1,542                   1,322,572,332   8,231,778       
00002.M2TS      4353 (0x1101)   0x86            DTS-HD MA       eng (English)           6859.728                3,023                   2,592,386,192   15,158,276      
00009.M2TS      4113 (0x1011)   0x1B            AVC                                     0.876                   108                     11,791          72              

[/code]
<---- END FORUMS PASTE ---->

QUICK SUMMARY:

Disc Title: Days Of Future Passed Live (2018) [BD]
Disc Size: 37,490,239,324 bytes
Protection: AACS
BD-Java: No
Playlist: 00002.MPLS
Size: 31,391,428,608 bytes
Length: 1:54:20.812
Total Bitrate: 36.60 Mbps
Video: MPEG-4 AVC Video / 29990 kbps / 1080p / 23.976 fps / 16:9 / High Profile 4.1
Audio: English / LPCM Audio / 2.0 / 48 kHz / 1536 kbps / 16-bit
Audio: English / DTS-HD Master Audio / 5.1 / 48 kHz / 3023 kbps / 16-bit (DTS Core: 5.1 / 48 kHz / 1509 kbps / 16-bit)


********************
PLAYLIST: 00006.MPLS
********************

<--- BEGIN FORUMS PASTE --->
[code]
                                                                                                                Total   Video                                             
Title                                                           Codec   Length  Movie Size      Disc Size       Bitrate Bitrate Main Audio Track                          Secondary Audio Track
-----                                                           ------  ------- --------------  --------------  ------- ------- ------------------                        ---------------------
00006.MPLS                                                      AVC     1:03:02 17,497,265,280  37,490,239,324  37.01   30.47   LPCM 2.0 1536Kbps (48kHz/16-bit)          DTS-HD Master 5.1 2933Kbps (48kHz/16-bit)
[/code]

[code]

DISC INFO:

Disc Title:     Days Of Future Passed Live (2018) [BD]
Disc Size:      37,490,239,324 bytes
Protection:     AACS
BD-Java:        No
BDInfo:         0.5.8

PLAYLIST REPORT:

Name:                   00006.MPLS
Length:                 1:03:02.612 (h:m:s.ms)
Size:                   17,497,265,280 bytes
Total Bitrate:          37.01 Mbps

VIDEO:

Codec                   Bitrate             Description     
-----                   -------             -----------     
MPEG-4 AVC Video        30465 kbps          1080p / 23.976 fps / 16:9 / High Profile 4.1

AUDIO:

Codec                           Language        Bitrate         Description     
-----                           --------        -------         -----------     
LPCM Audio                      English         1536 kbps       2.0 / 48 kHz / 1536 kbps / 16-bit
DTS-HD Master Audio             English         2933 kbps       5.1 / 48 kHz / 2933 kbps / 16-bit (DTS Core: 5.1 / 48 kHz / 1509 kbps / 16-bit)

FILES:

Name            Time In         Length          Size            Total Bitrate   
----            -------         ------          ----            -------------   
00002.M2TS      0:00:00.000     1:03:01.611     17,497,240,704  37,015          
00009.M2TS      1:03:01.611     0:00:01.000     24,576          196             

CHAPTERS:

Number          Time In         Length          Avg Video Rate  Max 1-Sec Rate  Max 1-Sec Time  Max 5-Sec Rate  Max 5-Sec Time  Max 10Sec Rate  Max 10Sec Time  Avg Frame Size  Max Frame Size  Max Frame Time  
------          -------         ------          --------------  --------------  --------------  --------------  --------------  --------------  --------------  --------------  --------------  --------------  
1               0:00:00.000     0:04:48.663     28,207 kbps     40,312 kbps     00:03:33.421    36,982 kbps     00:01:08.610    36,350 kbps     00:01:03.521    147,038 bytes   557,385 bytes   00:01:12.072    
2               0:04:48.663     0:01:06.316     30,747 kbps     38,818 kbps     00:05:28.703    36,336 kbps     00:05:24.699    35,509 kbps     00:05:21.571    160,303 bytes   475,961 bytes   00:05:37.754    
3               0:05:54.979     0:00:50.300     30,750 kbps     37,049 kbps     00:05:59.317    35,369 kbps     00:05:55.855    34,073 kbps     00:05:55.855    160,315 bytes   547,988 bytes   00:06:31.057    
4               0:06:45.279     0:04:15.338     30,802 kbps     39,465 kbps     00:07:43.129    35,861 kbps     00:07:16.269    35,262 kbps     00:09:34.824    160,586 bytes   570,725 bytes   00:08:47.985    
5               0:11:00.618     0:00:25.608     24,307 kbps     34,552 kbps     00:11:16.258    32,251 kbps     00:11:15.257    30,635 kbps     00:11:14.256    126,724 bytes   449,243 bytes   00:11:26.227    
6               0:11:26.227     0:04:07.997     30,959 kbps     41,215 kbps     00:13:22.635    36,851 kbps     00:11:47.873    36,264 kbps     00:11:42.326    161,406 bytes   578,772 bytes   00:14:54.810    
7               0:15:34.224     0:01:59.244     30,900 kbps     40,786 kbps     00:15:54.536    39,182 kbps     00:15:54.370    35,560 kbps     00:15:53.869    161,098 bytes   527,089 bytes   00:17:15.409    
8               0:17:33.469     0:03:50.939     31,640 kbps     40,847 kbps     00:20:03.118    35,445 kbps     00:17:36.764    34,060 kbps     00:17:35.345    164,955 bytes   503,216 bytes   00:17:39.349    
9               0:21:24.408     0:05:44.344     31,671 kbps     39,324 kbps     00:25:57.138    36,781 kbps     00:25:56.638    35,973 kbps     00:25:56.137    165,116 bytes   534,041 bytes   00:26:14.614    
10              0:27:08.752     0:03:51.606     31,916 kbps     42,850 kbps     00:29:34.105    37,128 kbps     00:28:14.067    36,359 kbps     00:28:11.398    166,397 bytes   509,944 bytes   00:28:50.770    
11              0:31:00.358     0:00:42.083     32,192 kbps     35,488 kbps     00:31:38.771    34,830 kbps     00:31:37.061    33,845 kbps     00:31:11.995    167,836 bytes   401,459 bytes   00:31:30.346    
12              0:31:42.442     0:03:00.054     29,991 kbps     37,834 kbps     00:34:26.731    36,148 kbps     00:33:44.814    34,350 kbps     00:33:39.809    156,358 bytes   553,701 bytes   00:34:27.482    
13              0:34:42.497     0:00:24.607     32,417 kbps     39,423 kbps     00:35:02.141    35,793 kbps     00:34:59.138    34,666 kbps     00:34:54.133    169,008 bytes   568,560 bytes   00:34:50.505    
14              0:35:07.104     0:03:25.163     32,788 kbps     41,243 kbps     00:35:31.754    35,658 kbps     00:35:31.254    35,183 kbps     00:35:17.824    170,941 bytes   521,410 bytes   00:35:39.387    
15              0:38:32.268     0:01:08.818     30,678 kbps     38,879 kbps     00:39:03.841    36,264 kbps     00:38:59.837    34,497 kbps     00:38:54.790    159,941 bytes   555,706 bytes   00:38:46.282    
16              0:39:41.087     0:06:30.765     30,676 kbps     44,707 kbps     00:44:36.298    38,731 kbps     00:44:32.711    35,448 kbps     00:40:36.934    159,930 bytes   594,342 bytes   00:44:54.358    
17              0:46:11.852     0:04:01.574     29,848 kbps     43,667 kbps     00:48:32.075    38,672 kbps     00:48:27.905    36,351 kbps     00:48:26.904    155,611 bytes   608,431 bytes   00:49:35.430    
18              0:50:13.427     0:06:35.520     31,437 kbps     41,907 kbps     00:54:58.586    37,349 kbps     00:50:19.725    34,816 kbps     00:54:42.696    163,898 bytes   583,845 bytes   00:53:43.678    
19              0:56:48.947     0:06:12.663     26,925 kbps     39,775 kbps     01:00:59.405    35,355 kbps     00:59:37.865    34,764 kbps     01:01:39.862    140,374 bytes   540,462 bytes   01:01:41.239    
20              1:03:01.611     0:00:01.001     75 kbps         0 kbps          00:00:00.000    0 kbps          00:00:00.000    0 kbps          00:00:00.000    407 bytes       2,424 bytes     01:03:02.361    

STREAM DIAGNOSTICS:

File            PID             Type            Codec           Language                Seconds                 Bitrate                 Bytes           Packets         
----            ---             ----            -----           --------                --------------          --------------          -------------   -----           
00002.M2TS      4113 (0x1011)   0x1B            AVC                                     6859.728                29,995                  25,719,668,079  139,876,992     
00002.M2TS      4352 (0x1100)   0x80            LPCM            eng (English)           6859.728                1,542                   1,322,572,332   8,231,778       
00002.M2TS      4353 (0x1101)   0x86            DTS-HD MA       eng (English)           6859.728                3,023                   2,592,386,192   15,158,276      
00009.M2TS      4113 (0x1011)   0x1B            AVC                                     0.876                   108                     11,791          72              

[/code]
<---- END FORUMS PASTE ---->

QUICK SUMMARY:

Disc Title: Days Of Future Passed Live (2018) [BD]
Disc Size: 37,490,239,324 bytes
Protection: AACS
BD-Java: No
Playlist: 00006.MPLS
Size: 17,497,265,280 bytes
Length: 1:03:02.612
Total Bitrate: 37.01 Mbps
Video: MPEG-4 AVC Video / 30465 kbps / 1080p / 23.976 fps / 16:9 / High Profile 4.1
Audio: English / LPCM Audio / 2.0 / 48 kHz / 1536 kbps / 16-bit
Audio: English / DTS-HD Master Audio / 5.1 / 48 kHz / 2933 kbps / 16-bit (DTS Core: 5.1 / 48 kHz / 1509 kbps / 16-bit)


********************
PLAYLIST: 00005.MPLS
********************

<--- BEGIN FORUMS PASTE --->
[code]
                                                                                                                Total   Video                                             
Title                                                           Codec   Length  Movie Size      Disc Size       Bitrate Bitrate Main Audio Track                          Secondary Audio Track
-----                                                           ------  ------- --------------  --------------  ------- ------- ------------------                        ---------------------
00005.MPLS                                                      AVC     0:51:18 13,893,988,416  37,490,239,324  36.10   29.40   LPCM 2.0 1536Kbps (48kHz/16-bit)          DTS-HD Master 5.1 3132Kbps (48kHz/16-bit)
[/code]

[code]

DISC INFO:

Disc Title:     Days Of Future Passed Live (2018) [BD]
Disc Size:      37,490,239,324 bytes
Protection:     AACS
BD-Java:        No
BDInfo:         0.5.8

PLAYLIST REPORT:

Name:                   00005.MPLS
Length:                 0:51:18.784 (h:m:s.ms)
Size:                   13,893,988,416 bytes
Total Bitrate:          36.10 Mbps

VIDEO:

Codec                   Bitrate             Description     
-----                   -------             -----------     
MPEG-4 AVC Video        29401 kbps          1080p / 23.976 fps / 16:9 / High Profile 4.1

AUDIO:

Codec                           Language        Bitrate         Description     
-----                           --------        -------         -----------     
LPCM Audio                      English         1536 kbps       2.0 / 48 kHz / 1536 kbps / 16-bit
DTS-HD Master Audio             English         3132 kbps       5.1 / 48 kHz / 3132 kbps / 16-bit (DTS Core: 5.1 / 48 kHz / 1509 kbps / 16-bit)

FILES:

Name            Time In         Length          Size            Total Bitrate   
----            -------         ------          ----            -------------   
00002.M2TS      0:00:00.000     0:51:17.783     13,893,963,840  36,114          
00009.M2TS      0:51:17.783     0:00:01.000     24,576          196             

CHAPTERS:

Number          Time In         Length          Avg Video Rate  Max 1-Sec Rate  Max 1-Sec Time  Max 5-Sec Rate  Max 5-Sec Time  Max 10Sec Rate  Max 10Sec Time  Avg Frame Size  Max Frame Size  Max Frame Time  
------          -------         ------          --------------  --------------  --------------  --------------  --------------  --------------  --------------  --------------  --------------  --------------  
1               0:00:00.000     0:07:34.829     30,144 kbps     45,104 kbps     00:00:40.123    37,176 kbps     00:01:36.888    35,213 kbps     00:01:36.262    157,142 bytes   466,392 bytes   00:01:40.767    
2               0:07:34.829     0:04:07.538     31,201 kbps     39,713 kbps     00:10:23.080    36,706 kbps     00:08:10.323    36,063 kbps     00:08:10.781    162,668 bytes   504,430 bytes   00:09:07.296    
3               0:11:42.368     0:05:55.897     28,821 kbps     40,800 kbps     00:13:58.796    36,463 kbps     00:13:56.168    34,755 kbps     00:13:41.237    150,257 bytes   547,775 bytes   00:12:21.240    
4               0:17:38.265     0:05:06.764     31,005 kbps     41,391 kbps     00:19:07.646    35,936 kbps     00:18:03.999    33,700 kbps     00:19:58.030    161,644 bytes   529,299 bytes   00:17:45.606    
5               0:22:45.030     0:05:21.779     28,707 kbps     39,712 kbps     00:25:00.665    36,469 kbps     00:26:17.867    35,721 kbps     00:26:17.867    149,665 bytes   552,842 bytes   00:26:20.912    
6               0:28:06.810     0:05:15.356     30,243 kbps     40,199 kbps     00:28:49.310    37,156 kbps     00:28:45.306    35,986 kbps     00:28:41.636    157,675 bytes   522,916 bytes   00:30:39.963    
7               0:33:22.166     0:08:16.037     26,714 kbps     37,144 kbps     00:40:16.622    35,048 kbps     00:37:17.652    33,583 kbps     00:38:56.000    139,273 bytes   456,448 bytes   00:40:25.339    
8               0:41:38.204     0:05:28.745     29,739 kbps     39,796 kbps     00:44:55.818    37,286 kbps     00:44:37.424    36,050 kbps     00:44:33.128    155,048 bytes   487,625 bytes   00:42:11.695    
9               0:47:06.949     0:04:10.833     29,959 kbps     41,600 kbps     00:49:24.503    36,056 kbps     00:48:32.326    35,173 kbps     00:48:26.862    156,190 bytes   461,106 bytes   00:51:03.310    
10              0:51:17.783     0:00:01.000     77 kbps         77 kbps         00:51:17.783    0 kbps          00:00:00.000    0 kbps          00:00:00.000    401 bytes       2,432 bytes     00:51:18.200    

STREAM DIAGNOSTICS:

File            PID             Type            Codec           Language                Seconds                 Bitrate                 Bytes           Packets         
----            ---             ----            -----           --------                --------------          --------------          -------------   -----           
00002.M2TS      4113 (0x1011)   0x1B            AVC                                     6859.728                29,995                  25,719,668,079  139,876,992     
00002.M2TS      4352 (0x1100)   0x80            LPCM            eng (English)           6859.728                1,542                   1,322,572,332   8,231,778       
00002.M2TS      4353 (0x1101)   0x86            DTS-HD MA       eng (English)           6859.728                3,023                   2,592,386,192   15,158,276      
00009.M2TS      4113 (0x1011)   0x1B            AVC                                     0.876                   108                     11,791          72              

[/code]
<---- END FORUMS PASTE ---->

QUICK SUMMARY:

Disc Title: Days Of Future Passed Live (2018) [BD]
Disc Size: 37,490,239,324 bytes
Protection: AACS
BD-Java: No
Playlist: 00005.MPLS
Size: 13,893,988,416 bytes
Length: 0:51:18.784
Total Bitrate: 36.10 Mbps
Video: MPEG-4 AVC Video / 29401 kbps / 1080p / 23.976 fps / 16:9 / High Profile 4.1
Audio: English / LPCM Audio / 2.0 / 48 kHz / 1536 kbps / 16-bit
Audio: English / DTS-HD Master Audio / 5.1 / 48 kHz / 3132 kbps / 16-bit (DTS Core: 5.1 / 48 kHz / 1509 kbps / 16-bit)


********************
PLAYLIST: 00000.MPLS
********************

<--- BEGIN FORUMS PASTE --->
[code]
                                                                                                                Total   Video                                             
Title                                                           Codec   Length  Movie Size      Disc Size       Bitrate Bitrate Main Audio Track                          Secondary Audio Track
-----                                                           ------  ------- --------------  --------------  ------- ------- ------------------                        ---------------------
00000.MPLS                                                      AVC     0:21:26 5,383,477,248   37,490,239,324  33.47   29.97   LPCM 2.0 1536Kbps (48kHz/16-bit)          
[/code]

[code]

DISC INFO:

Disc Title:     Days Of Future Passed Live (2018) [BD]
Disc Size:      37,490,239,324 bytes
Protection:     AACS
BD-Java:        No
BDInfo:         0.5.8

PLAYLIST REPORT:

Name:                   00000.MPLS
Length:                 0:21:26.785 (h:m:s.ms)
Size:                   5,383,477,248 bytes
Total Bitrate:          33.47 Mbps

VIDEO:

Codec                   Bitrate             Description     
-----                   -------             -----------     
MPEG-4 AVC Video        29970 kbps          1080p / 23.976 fps / 16:9 / High Profile 4.1

AUDIO:

Codec                           Language        Bitrate         Description     
-----                           --------        -------         -----------     
LPCM Audio                      English         1536 kbps       2.0 / 48 kHz / 1536 kbps / 16-bit

SUBTITLES:

Codec                           Language        Bitrate         Description     
-----                           --------        -------         -----------     
Presentation Graphics           English         62.501 kbps                     
Presentation Graphics           German          71.852 kbps                     
Presentation Graphics           Spanish         61.467 kbps                     
Presentation Graphics           French          60.728 kbps                     

FILES:

Name            Time In         Length          Size            Total Bitrate   
----            -------         ------          ----            -------------   
00007.M2TS      0:00:00.000     0:21:25.784     5,383,452,672   33,495          
00009.M2TS      0:21:25.784     0:00:01.000     24,576          196             

CHAPTERS:

Number          Time In         Length          Avg Video Rate  Max 1-Sec Rate  Max 1-Sec Time  Max 5-Sec Rate  Max 5-Sec Time  Max 10Sec Rate  Max 10Sec Time  Avg Frame Size  Max Frame Size  Max Frame Time  
------          -------         ------          --------------  --------------  --------------  --------------  --------------  --------------  --------------  --------------  --------------  --------------  
1               0:00:00.000     0:06:56.749     30,808 kbps     37,584 kbps     00:00:24.691    37,340 kbps     00:00:21.312    36,778 kbps     00:00:18.101    160,603 bytes   494,354 bytes   00:00:26.192    
2               0:06:56.749     0:07:39.876     30,296 kbps     38,374 kbps     00:09:06.045    36,958 kbps     00:13:47.368    36,351 kbps     00:09:08.714    157,948 bytes   500,120 bytes   00:09:08.756    
3               0:14:36.625     0:06:49.158     28,825 kbps     39,148 kbps     00:17:49.985    36,469 kbps     00:20:27.517    36,254 kbps     00:14:37.585    150,278 bytes   502,448 bytes   00:20:31.563    
4               0:21:25.784     0:00:01.000     75 kbps         0 kbps          00:00:00.000    0 kbps          00:00:00.000    0 kbps          00:00:00.000    407 bytes       2,424 bytes     00:21:26.535    

STREAM DIAGNOSTICS:

File            PID             Type            Codec           Language                Seconds                 Bitrate                 Bytes           Packets         
----            ---             ----            -----           --------                --------------          --------------          -------------   -----           
00007.M2TS      4113 (0x1011)   0x1B            AVC                                     1285.659                29,997                  4,820,663,999   26,217,255      
00007.M2TS      4352 (0x1100)   0x80            LPCM            eng (English)           1285.659                1,543                   247,899,348     1,542,942       
00007.M2TS      4608 (0x1200)   0x90            PGS             eng (English)           1285.659                63                      10,053,159      57,440          
00007.M2TS      4609 (0x1201)   0x90            PGS             deu (German)            1285.659                72                      11,557,325      65,664          
00007.M2TS      4610 (0x1202)   0x90            PGS             spa (Spanish)           1285.659                62                      9,886,801       56,541          
00007.M2TS      4611 (0x1203)   0x90            PGS             fra (French)            1285.659                61                      9,767,936       55,872          
00009.M2TS      4113 (0x1011)   0x1B            AVC                                     0.876                   108                     11,791          72              

[/code]
<---- END FORUMS PASTE ---->

QUICK SUMMARY:

Disc Title: Days Of Future Passed Live (2018) [BD]
Disc Size: 37,490,239,324 bytes
Protection: AACS
BD-Java: No
Playlist: 00000.MPLS
Size: 5,383,477,248 bytes
Length: 0:21:26.785
Total Bitrate: 33.47 Mbps
Video: MPEG-4 AVC Video / 29970 kbps / 1080p / 23.976 fps / 16:9 / High Profile 4.1
Audio: English / LPCM Audio / 2.0 / 48 kHz / 1536 kbps / 16-bit
Subtitle: English / 62.501 kbps
Subtitle: German / 71.852 kbps
Subtitle: Spanish / 61.467 kbps
Subtitle: French / 60.728 kbps


********************
PLAYLIST: 00004.MPLS
********************

<--- BEGIN FORUMS PASTE --->
[code]
                                                                                                                Total   Video                                             
Title                                                           Codec   Length  Movie Size      Disc Size       Bitrate Bitrate Main Audio Track                          Secondary Audio Track
-----                                                           ------  ------- --------------  --------------  ------- ------- ------------------                        ---------------------
00004.MPLS                                                      AVC     0:00:21 9,443,328       37,490,239,324  3.59    3.33                                              
[/code]

[code]

DISC INFO:

Disc Title:     Days Of Future Passed Live (2018) [BD]
Disc Size:      37,490,239,324 bytes
Protection:     AACS
BD-Java:        No
BDInfo:         0.5.8

PLAYLIST REPORT:

Name:                   00004.MPLS
Length:                 0:00:21.020 (h:m:s.ms)
Size:                   9,443,328 bytes
Total Bitrate:          3.59 Mbps

VIDEO:

Codec                   Bitrate             Description     
-----                   -------             -----------     
MPEG-4 AVC Video        3327 kbps           1080i / 29.970 fps / 16:9 / High Profile 4.1

FILES:

Name            Time In         Length          Size            Total Bitrate   
----            -------         ------          ----            -------------   
00005.M2TS      0:00:00.000     0:00:10.510     4,841,472       3,685           
00006.M2TS      0:00:10.510     0:00:10.510     4,601,856       3,503           

CHAPTERS:

Number          Time In         Length          Avg Video Rate  Max 1-Sec Rate  Max 1-Sec Time  Max 5-Sec Rate  Max 5-Sec Time  Max 10Sec Rate  Max 10Sec Time  Avg Frame Size  Max Frame Size  Max Frame Time  
------          -------         ------          --------------  --------------  --------------  --------------  --------------  --------------  --------------  --------------  --------------  --------------  
1               0:00:00.000     0:00:21.020     3,327 kbps      6,302 kbps      00:00:09.509    3,947 kbps      00:00:06.840    3,597 kbps      00:00:01.701    13,875 bytes    200,073 bytes   00:00:18.918    

STREAM DIAGNOSTICS:

File            PID             Type            Codec           Language                Seconds                 Bitrate                 Bytes           Packets         
----            ---             ----            -----           --------                --------------          --------------          -------------   -----           
00005.M2TS      4113 (0x1011)   0x1B            AVC                                     10.410                  3,448                   4,486,469       24,858          
00006.M2TS      4113 (0x1011)   0x1B            AVC                                     10.410                  3,270                   4,254,964       23,596          

[/code]
<---- END FORUMS PASTE ---->

QUICK SUMMARY:

Disc Title: Days Of Future Passed Live (2018) [BD]
Disc Size: 37,490,239,324 bytes
Protection: AACS
BD-Java: No
Playlist: 00004.MPLS
Size: 9,443,328 bytes
Length: 0:00:21.020
Total Bitrate: 3.59 Mbps
Video: MPEG-4 AVC Video / 3327 kbps / 1080i / 29.970 fps / 16:9 / High Profile 4.1


********************
PLAYLIST: 00003.MPLS
********************

<--- BEGIN FORUMS PASTE --->
[code]
                                                                                                                Total   Video                                             
Title                                                           Codec   Length  Movie Size      Disc Size       Bitrate Bitrate Main Audio Track                          Secondary Audio Track
-----                                                           ------  ------- --------------  --------------  ------- ------- ------------------                        ---------------------
00003.MPLS                                                      AVC     0:00:20 44,697,600      37,490,239,324  17.83   15.21   LPCM 2.0 1536Kbps (48kHz/16-bit)          
[/code]

[code]

DISC INFO:

Disc Title:     Days Of Future Passed Live (2018) [BD]
Disc Size:      37,490,239,324 bytes
Protection:     AACS
BD-Java:        No
BDInfo:         0.5.8

PLAYLIST REPORT:

Name:                   00003.MPLS
Length:                 0:00:20.053 (h:m:s.ms)
Size:                   44,697,600 bytes
Total Bitrate:          17.83 Mbps

VIDEO:

Codec                   Bitrate             Description     
-----                   -------             -----------     
MPEG-4 AVC Video        15214 kbps          1080i / 29.970 fps / 16:9 / High Profile 4.1

AUDIO:

Codec                           Language        Bitrate         Description     
-----                           --------        -------         -----------     
LPCM Audio                      English         1536 kbps       2.0 / 48 kHz / 1536 kbps / 16-bit

FILES:

Name            Time In         Length          Size            Total Bitrate   
----            -------         ------          ----            -------------   
00003.M2TS      0:00:00.000     0:00:20.053     44,697,600      17,831          

CHAPTERS:

Number          Time In         Length          Avg Video Rate  Max 1-Sec Rate  Max 1-Sec Time  Max 5-Sec Rate  Max 5-Sec Time  Max 10Sec Rate  Max 10Sec Time  Avg Frame Size  Max Frame Size  Max Frame Time  
------          -------         ------          --------------  --------------  --------------  --------------  --------------  --------------  --------------  --------------  --------------  --------------  
1               0:00:00.000     0:00:20.053     15,214 kbps     32,421 kbps     00:00:08.141    27,674 kbps     00:00:04.771    24,839 kbps     00:00:03.436    63,455 bytes    324,912 bytes   00:00:08.308    

STREAM DIAGNOSTICS:

File            PID             Type            Codec           Language                Seconds                 Bitrate                 Bytes           Packets         
----            ---             ----            -----           --------                --------------          --------------          -------------   -----           
00003.M2TS      4113 (0x1011)   0x1B            AVC                                     19.953                  15,290                  38,136,751      208,048         
00003.M2TS      4352 (0x1100)   0x80            LPCM            eng (English)           19.953                  1,549                   3,864,676       24,054          

[/code]
<---- END FORUMS PASTE ---->

QUICK SUMMARY:

Disc Title: Days Of Future Passed Live (2018) [BD]
Disc Size: 37,490,239,324 bytes
Protection: AACS
BD-Java: No
Playlist: 00003.MPLS
Size: 44,697,600 bytes
Length: 0:00:20.053
Total Bitrate: 17.83 Mbps
Video: MPEG-4 AVC Video / 15214 kbps / 1080i / 29.970 fps / 16:9 / High Profile 4.1
Audio: English / LPCM Audio / 2.0 / 48 kHz / 1536 kbps / 16-bit




Create a new paste based on this one


Comments: