[ create a new paste ] login | about

Link: http://codepad.org/WzWcpsBq    [ raw code | fork ]

Plain Text, pasted on Oct 30:
foobar2000 1.4 / Dynamic Range Meter 1.1.1
log date: 2018-10-29 19:09:58

--------------------------------------------------------------------------------
Analyzed: Diana Ross, Lionel Richie / All The Great Hits (2018 Hybrid SACD) (1)
          Diana Ross / All The Great Hits (2018 Hybrid SACD) (2-16)
--------------------------------------------------------------------------------

DR         Peak         RMS     Duration Track
--------------------------------------------------------------------------------
DR8       -1.52 dB   -12.13 dB      4:28 01-Endless Love
DR5       -1.49 dB    -9.84 dB      3:59 02-It's My Turn
DR5       -1.75 dB   -11.26 dB      3:24 03-Theme From Mahogany (Do You Know Where You're Going To)
DR7       -1.62 dB   -10.88 dB      3:01 04-Reach Out And Touch (Somebody's Hand)
DR7       -1.41 dB   -11.84 dB      3:53 05-Touch Me In The Morning
DR11      -1.47 dB   -15.50 dB      2:23 06-Good Morning Heartache
DR9       -0.48 dB   -12.80 dB      2:51 07-Last Time I Saw Him
DR9       -2.30 dB   -12.72 dB      4:06 08-Upside Down
DR9       -1.93 dB   -12.94 dB      5:24 09-I'm Coming Out
DR9       -2.06 dB   -12.39 dB      3:52 10-Tenderness
DR8       -1.97 dB   -11.02 dB      3:58 11-My Old Piano
DR8       -2.19 dB   -12.26 dB      3:55 12-The Boss
DR8       -1.39 dB   -12.61 dB      4:33 13-It's My House
DR7       -1.72 dB   -10.50 dB      7:50 14-Love Hangover
DR7       -1.26 dB   -11.03 dB      6:19 15-Ain't No Mountain High Enough
DR10      -1.03 dB   -12.87 dB      3:31 16-Remember Me
--------------------------------------------------------------------------------

Number of tracks:  16
Official DR value: DR8

Samplerate:        88200 Hz
Channels:          2
Bits per sample:   24
Bitrate:           2793 kbps
Codec:             FLAC
================================================================================




Create a new paste based on this one


Comments: