[ create a new paste ] login | about

Link: http://codepad.org/X5AD9v3L    [ raw code | fork ]

Plain Text, pasted on Aug 23:
foobar2000 1.3.16 / Dynamic Range Meter 1.1.1
log date: 2017-08-22 18:05:41

--------------------------------------------------------------------------------
Analyzed: Cream / Disraeli Gears <Stereo & Mono>
--------------------------------------------------------------------------------

DR         Peak         RMS     Duration Track
--------------------------------------------------------------------------------
DR12      -4.34 dB   -19.17 dB      2:47 01-Strange Brew (Stereo)
DR12      -5.00 dB   -18.23 dB      4:10 02-Sunshine Of Your Love (Stereo)
DR12      -6.15 dB   -20.04 dB      3:03 03-World Of Pain (Stereo)
DR11      -4.45 dB   -19.38 dB      3:35 04-Dance The Night Away (Stereo)
DR12      -4.17 dB   -18.61 dB      3:30 05-Blue Condition (Stereo)
DR12      -4.26 dB   -18.66 dB      2:46 06-Tales Of Brave Ulysses (Stereo)
DR11      -4.22 dB   -18.12 dB      2:33 07-SWLABR (Stereo)
DR12      -5.40 dB   -21.98 dB      3:28 08-We're Going Wrong (Stereo)
DR11      -5.67 dB   -18.80 dB      2:26 09-Outside Woman Blues (Stereo)
DR13      -5.10 dB   -19.25 dB      3:07 10-Take It Back (Stereo)
DR11      -9.14 dB   -23.64 dB      1:48 11-Mother's Lament (Stereo)
DR10      -5.78 dB   -17.93 dB      2:02 12-Lawdy Mama (Version 1 - Stereo)
DR10      -5.93 dB   -18.20 dB      2:48 13-Lawdy Mama (Version 2 - Stereo)
DR12      -4.91 dB   -20.26 dB      3:09 14-Blue Condition (Alternate version - Stereo)
DR11      -4.71 dB   -17.57 dB      2:47 15-Strange Brew (Mono)
DR11      -5.11 dB   -18.20 dB      4:12 16-Sunshine Of Your Love (Mono)
DR11      -6.48 dB   -19.51 dB      3:07 17-World Of Pain (Mono)
DR11      -5.84 dB   -19.70 dB      3:35 18-Dance The Night Away (Mono)
DR13      -6.83 dB   -20.57 dB      3:29 19-Blue Condition (Mono)
DR11      -5.10 dB   -18.26 dB      2:52 20-Tales Of Brave Ulysses (Mono)
DR11      -5.03 dB   -17.88 dB      2:33 21-SWLABR (Mono)
DR11      -6.81 dB   -21.53 dB      3:28 22-We're Going Wrong (Mono)
DR11      -6.24 dB   -18.65 dB      2:26 23-Outside Woman Blues (Mono)
DR12      -5.67 dB   -18.77 dB      3:07 24-Take It Back (Mono)
DR12      -9.09 dB   -24.40 dB      1:49 25-Mother's Lament (Mono)
DR10      -6.66 dB   -18.71 dB      2:01 26-Lawdy Mama (Version 1 - Mono)
DR11      -5.60 dB   -19.01 dB      2:47 27-Lawdy Mama (Version 2 - Mono)
DR11      -6.78 dB   -19.71 dB      3:14 28-Blue Condition (Alternate version - Mono)
--------------------------------------------------------------------------------

Number of tracks:  28
Official DR value: DR11

Samplerate:        2822400 Hz / PCM Samplerate: 88200 Hz
Channels:          2
Bits per sample:   1
Bitrate:           5645 kbps
Codec:             DSD64
================================================================================




Create a new paste based on this one


Comments: