[ create a new paste ] login | about

Link: http://codepad.org/X5ovYgHv    [ raw code | fork ]

Plain Text, pasted on Mar 22:
Exact Audio Copy V1.0 beta 3 from 29. August 2011

EAC extraction logfile from 12. October 2013, 9:23

Stan Getz / Bonus Disc

Used drive  : ATAPI   DVD A  DH16ABSH   Adapter: 2  ID: 1

Read mode               : Secure
Utilize accurate stream : Yes
Defeat audio cache      : Yes
Make use of C2 pointers : No

Read offset correction                      : 6
Overread into Lead-In and Lead-Out          : No
Fill up missing offset samples with silence : Yes
Delete leading and trailing silent blocks   : No
Null samples used in CRC calculations       : Yes
Used interface                              : Native Win32 interface for Win NT & 2000
Gap handling                                : Appended to previous track

Used output format              : User Defined Encoder
Selected bitrate                : 128 kBit/s
Quality                         : High
Add ID3 tag                     : No
Command line compressor         : C:\Program Files (x86)\Exact Audio Copy\FLAC\FLAC.EXE
Additional command line options : -8 -V -T "ARTIST=%artist%" -T "TITLE=%title%" -T "ALBUM=%albumtitle%" -T "DATE=%year%" -T "TRACKNUMBER=%tracknr%" -T "TOTALTRACKS=%numtracks%" -T "GENRE=%genre%" -T "ALBUMARTIST=%albumartist%" -T "ALBUM ARTIST=%albumartist%" -T "COMMENT=EAC Secure Mode, Test & Copy, AccurateRip, FLAC -8" %source%


TOC of the extracted CD

     Track |   Start  |  Length  | Start sector | End sector 
    ---------------------------------------------------------
        1  |  0:00.00 |  4:20.20 |         0    |    19519   
        2  |  4:20.20 |  3:51.58 |     19520    |    36902   
        3  |  8:12.03 |  7:02.74 |     36903    |    68626   
        4  | 15:15.02 |  4:16.69 |     68627    |    87895   
        5  | 19:31.71 |  3:48.10 |     87896    |   105005   
        6  | 23:20.06 | 10:34.61 |    105006    |   152616   
        7  | 33:54.67 | 11:25.70 |    152617    |   204061   
        8  | 45:20.62 |  8:56.39 |    204062    |   244300   
        9  | 54:17.26 | 11:41.25 |    244301    |   296900   


Track  1

     Filename G:\Uploads\Ex\Stan Getz - The Complete Columbia Albums Collection (1972-79) [FLAC] {8xCDs}\Disc 8 - Bonus Disc\01 - Four Brothers.wav

     Pre-gap length  0:00:02.00

     Peak level 99.5 %
     Extraction speed 1.8 X
     Track quality 99.9 %
     Test CRC F5C4BBF6
     Copy CRC F5C4BBF6
     Cannot be verified as accurate (confidence 5)  [C410DDED], AccurateRip returned [C7F7F69E]  (AR v2)
     Copy OK

Track  2

     Filename G:\Uploads\Ex\Stan Getz - The Complete Columbia Albums Collection (1972-79) [FLAC] {8xCDs}\Disc 8 - Bonus Disc\02 - Early Autumn.wav

     Peak level 98.4 %
     Extraction speed 2.2 X
     Track quality 100.0 %
     Test CRC 3B63FA99
     Copy CRC 3B63FA99
     Cannot be verified as accurate (confidence 5)  [275926A8], AccurateRip returned [7522B17D]  (AR v2)
     Copy OK

Track  3

     Filename G:\Uploads\Ex\Stan Getz - The Complete Columbia Albums Collection (1972-79) [FLAC] {8xCDs}\Disc 8 - Bonus Disc\03 - Cousins.wav

     Peak level 85.9 %
     Extraction speed 2.4 X
     Track quality 99.9 %
     Test CRC 059F2A1C
     Copy CRC 059F2A1C
     Cannot be verified as accurate (confidence 5)  [FE1CB2BB], AccurateRip returned [4FD91DE2]  (AR v2)
     Copy OK

Track  4

     Filename G:\Uploads\Ex\Stan Getz - The Complete Columbia Albums Collection (1972-79) [FLAC] {8xCDs}\Disc 8 - Bonus Disc\04 - Blue Serge.wav

     Peak level 94.1 %
     Extraction speed 2.6 X
     Track quality 100.0 %
     Test CRC 998B4D5A
     Copy CRC 998B4D5A
     Cannot be verified as accurate (confidence 5)  [A4F2B806], AccurateRip returned [AD6ED4F0]  (AR v2)
     Copy OK

Track  5

     Filename G:\Uploads\Ex\Stan Getz - The Complete Columbia Albums Collection (1972-79) [FLAC] {8xCDs}\Disc 8 - Bonus Disc\05 - Blue Getz Blues.wav

     Peak level 98.3 %
     Extraction speed 2.8 X
     Track quality 100.0 %
     Test CRC 9541FE11
     Copy CRC 9541FE11
     Cannot be verified as accurate (confidence 5)  [BAC2AFA3], AccurateRip returned [E7177C32]  (AR v2)
     Copy OK

Track  6

     Filename G:\Uploads\Ex\Stan Getz - The Complete Columbia Albums Collection (1972-79) [FLAC] {8xCDs}\Disc 8 - Bonus Disc\06 - Finale- Caldonia (What Makes Your Big Head so Hard).wav

     Peak level 99.6 %
     Extraction speed 3.3 X
     Track quality 100.0 %
     Test CRC CEC3C69D
     Copy CRC CEC3C69D
     Cannot be verified as accurate (confidence 5)  [1900F1CB], AccurateRip returned [BFC9257A]  (AR v2)
     Copy OK

Track  7

     Filename G:\Uploads\Ex\Stan Getz - The Complete Columbia Albums Collection (1972-79) [FLAC] {8xCDs}\Disc 8 - Bonus Disc\07 - Infant Eyes.wav

     Pre-gap length  0:00:00.56

     Peak level 99.6 %
     Extraction speed 3.7 X
     Track quality 100.0 %
     Test CRC 7974C6F2
     Copy CRC 7974C6F2
     Cannot be verified as accurate (confidence 5)  [F68C076D], AccurateRip returned [42F575F9]  (AR v2)
     Copy OK

Track  8

     Filename G:\Uploads\Ex\Stan Getz - The Complete Columbia Albums Collection (1972-79) [FLAC] {8xCDs}\Disc 8 - Bonus Disc\08 - Tin Tin Deo.wav

     Pre-gap length  0:00:00.46

     Peak level 88.5 %
     Extraction speed 3.6 X
     Track quality 99.9 %
     Test CRC 6079E71F
     Copy CRC 6079E71F
     Cannot be verified as accurate (confidence 5)  [828C38FA], AccurateRip returned [D3AC1FD9]  (AR v2)
     Copy OK

Track  9

     Filename G:\Uploads\Ex\Stan Getz - The Complete Columbia Albums Collection (1972-79) [FLAC] {8xCDs}\Disc 8 - Bonus Disc\09 - Polka Dots & Moonbeams.wav

     Pre-gap length  0:00:01.34

     Peak level 87.1 %
     Extraction speed 4.3 X
     Track quality 100.0 %
     Test CRC F770084E
     Copy CRC F770084E
     Cannot be verified as accurate (confidence 5)  [5650D237], AccurateRip returned [4EB099A8]  (AR v2)
     Copy OK


No tracks could be verified as accurate
You may have a different pressing from the one(s) in the database

No errors occurred

End of status report

==== Log checksum 7C1A18F08988796560AE89E41A17845D312339A1CC33A9D1B74F90BC5B2444F7 ====



Create a new paste based on this one


Comments: