[ create a new paste ] login | about

Link: http://codepad.org/X9EHi4jq    [ raw code | fork ]

Plain Text, pasted on Mar 14:
foobar2000 1.4.1 / Dynamic Range Meter 1.1.1
log date: 2019-02-27 12:31:32

--------------------------------------------------------------------------------
Analyzed: Johannette Zomer, soprano / Fred Jacobs, theorbo / Splendore di Roma
--------------------------------------------------------------------------------

DR         Peak         RMS     Duration Track
--------------------------------------------------------------------------------
DR12      -5.46 dB   -27.76 dB      2:00 01-Dove mi lasci (1623)
DR14      -6.68 dB   -29.51 dB      4:06 02-Gia risi del mio mal (1619)
DR13      -6.77 dB   -27.62 dB      1:33 03-Cinta di rose (1623)
DR12      -9.26 dB   -28.67 dB      0:37 04-Pargoletto son io (1623)
DR13     -16.29 dB   -34.48 dB      2:40 05-Toccata III (1626)
DR14      -5.66 dB   -26.20 dB      1:55 06-Su l'oriente
DR13      -4.89 dB   -26.22 dB      3:36 07-Empio cor, core ingrate
DR12     -17.15 dB   -33.36 dB      1:26 08-Gagliarda (1640)
DR14      -5.43 dB   -26.10 dB      4:50 09-Fin dal monte Sion (1640)
DR14      -5.04 dB   -26.69 dB      4:51 10-Spoglie che fosti (Didone) (1640)
DR14      -5.91 dB   -28.06 dB      1:41 11-Voi, voi rubaste il core (1621)
DR13     -16.55 dB   -34.53 dB      4:27 12-Canzone I (1640)
DR16      -4.69 dB   -28.62 dB      2:16 13-Leggiadra rosa (1621)
DR14      -5.27 dB   -26.87 dB      1:57 14-Non si scherzi con amore (1627)
DR13     -16.29 dB   -34.04 dB      3:06 15-Toccata II (1640)
DR14      -4.93 dB   -27.88 dB      6:51 16-Or che la notte del silenzio amica
DR13     -14.58 dB   -34.10 dB      3:31 17-Passacaglia (1640)
DR14      -3.61 dB   -26.74 dB      2:26 18-Disperati che aspetti piu
DR13      -6.93 dB   -28.04 dB      1:57 19-Addio, perfida, addio
--------------------------------------------------------------------------------

Number of tracks:  19
Official DR value: DR13

Samplerate:        2822400 Hz / PCM Samplerate: 176400 Hz
Channels:          5
Bits per sample:   1
Bitrate:           14112 kbps
Codec:             DST64
================================================================================

--------------------------------------------------------------------------------
Analyzed: Johannette Zomer, soprano / Fred Jacobs, theorbo / Splendore di Roma
--------------------------------------------------------------------------------

DR         Peak         RMS     Duration Track
--------------------------------------------------------------------------------
DR11      -5.56 dB   -24.27 dB      2:00 01-Dove mi lasci (1623)
DR14      -7.35 dB   -26.31 dB      4:06 02-Gia risi del mio mal (1619)
DR13      -5.95 dB   -24.12 dB      1:33 03-Cinta di rose (1623)
DR11      -8.70 dB   -25.33 dB      0:37 04-Pargoletto son io (1623)
DR14     -15.06 dB   -31.97 dB      2:40 05-Toccata III (1626)
DR13      -5.45 dB   -22.79 dB      1:55 06-Su l'oriente
DR12      -5.03 dB   -22.84 dB      3:36 07-Empio cor, core ingrate
DR12     -16.31 dB   -30.59 dB      1:26 08-Gagliarda (1640)
DR12      -5.51 dB   -22.59 dB      4:50 09-Fin dal monte Sion (1640)
DR13      -5.04 dB   -23.30 dB      4:51 10-Spoglie che fosti (Didone) (1640)
DR14      -5.02 dB   -24.40 dB      1:41 11-Voi, voi rubaste il core (1621)
DR13     -16.77 dB   -32.08 dB      4:27 12-Canzone I (1640)
DR15      -5.06 dB   -25.33 dB      2:16 13-Leggiadra rosa (1621)
DR13      -5.36 dB   -23.49 dB      1:57 14-Non si scherzi con amore (1627)
DR13     -15.63 dB   -31.32 dB      3:06 15-Toccata II (1640)
DR14      -4.94 dB   -24.53 dB      6:51 16-Or che la notte del silenzio amica
DR14     -14.55 dB   -31.67 dB      3:31 17-Passacaglia (1640)
DR13      -6.09 dB   -23.28 dB      2:26 18-Disperati che aspetti piu
DR13      -5.66 dB   -24.50 dB      1:57 19-Addio, perfida, addio
--------------------------------------------------------------------------------

Number of tracks:  19
Official DR value: DR13

Samplerate:        2822400 Hz / PCM Samplerate: 176400 Hz
Channels:          2
Bits per sample:   1
Bitrate:           5645 kbps
Codec:             DST64
================================================================================




Create a new paste based on this one


Comments: