[ create a new paste ] login | about

Link: http://codepad.org/X9Ukl9vU    [ raw code | fork ]

Plain Text, pasted on Jul 14:
Exact Audio Copy V1.3 from 2. September 2016

EAC extraction logfile from 2. May 2018, 9:46

Sprit / It Shall Be CD2

Used drive  : PLEXTOR BD-R  PX-B950SA   Adapter: 1  ID: 1

Read mode               : Secure
Utilize accurate stream : Yes
Defeat audio cache      : Yes
Make use of C2 pointers : No

Read offset correction                      : 6
Overread into Lead-In and Lead-Out          : No
Fill up missing offset samples with silence : Yes
Delete leading and trailing silent blocks   : No
Null samples used in CRC calculations       : Yes
Used interface                              : Native Win32 interface for Win NT & 2000

Used output format : Internal WAV Routines
Sample format      : 44.100 Hz; 16 Bit; Stereo


TOC of the extracted CD

     Track |   Start  |  Length  | Start sector | End sector 
    ---------------------------------------------------------
        1  |  0:00.00 |  1:56.68 |         0    |     8767   
        2  |  1:56.68 |  2:50.09 |      8768    |    21526   
        3  |  4:47.02 |  4:39.72 |     21527    |    42523   
        4  |  9:26.74 |  2:25.35 |     42524    |    53433   
        5  | 11:52.34 |  2:13.31 |     53434    |    63439   
        6  | 14:05.65 |  2:02.06 |     63440    |    72595   
        7  | 16:07.71 |  4:09.19 |     72596    |    91289   
        8  | 20:17.15 |  1:11.40 |     91290    |    96654   
        9  | 21:28.55 |  5:47.14 |     96655    |   122693   
       10  | 27:15.69 |  3:56.64 |    122694    |   140457   
       11  | 31:12.58 |  4:22.40 |    140458    |   160147   
       12  | 35:35.23 |  5:28.12 |    160148    |   184759   
       13  | 41:03.35 |  3:08.05 |    184760    |   198864   
       14  | 44:11.40 |  4:05.01 |    198865    |   217240   
       15  | 48:16.41 |  2:49.20 |    217241    |   229935   
       16  | 51:05.61 |  3:03.50 |    229936    |   243710   
       17  | 54:09.36 |  3:24.01 |    243711    |   259011   
       18  | 57:33.37 |  2:21.21 |    259012    |   269607   
       19  | 59:54.58 |  5:49.72 |    269608    |   295854   
       20  | 65:44.55 |  3:21.51 |    295855    |   310980   
       21  | 69:06.31 |  2:26.44 |    310981    |   321974   
       22  | 71:33.00 |  4:09.17 |    321975    |   340666   
       23  | 75:42.17 |  3:12.67 |    340667    |   355133   
       24  | 78:55.09 |  4:23.69 |    355134    |   374927   


Range status and errors

Selected range

     Filename C:\Spirit\2018 It Shall Be (5CD Box Set Esoteric Records)\CD2\Sprit - It Shall Be CD2.wav

     Peak level 99.4 %
     Extraction speed 8.5 X
     Range quality 100.0 %
     Test CRC 799EF46A
     Copy CRC 799EF46A
     Copy OK

No errors occurred

 
AccurateRip summary
 
Track  1  accurately ripped (confidence 2)  [866629D9]  (AR v2)
Track  2  accurately ripped (confidence 2)  [954BA0AA]  (AR v2)
Track  3  accurately ripped (confidence 2)  [42CBD0F3]  (AR v2)
Track  4  accurately ripped (confidence 2)  [90F9AA4C]  (AR v2)
Track  5  accurately ripped (confidence 2)  [2EC30C4C]  (AR v2)
Track  6  accurately ripped (confidence 2)  [E8EBDC38]  (AR v2)
Track  7  accurately ripped (confidence 2)  [05B4FA89]  (AR v2)
Track  8  accurately ripped (confidence 2)  [F7E313EB]  (AR v2)
Track  9  accurately ripped (confidence 2)  [96C6EB28]  (AR v2)
Track 10  accurately ripped (confidence 2)  [92AC1162]  (AR v2)
Track 11  accurately ripped (confidence 2)  [F86B0B42]  (AR v2)
Track 12  accurately ripped (confidence 2)  [EA4CB7C5]  (AR v2)
Track 13  accurately ripped (confidence 2)  [D6BADE33]  (AR v2)
Track 14  accurately ripped (confidence 2)  [4BDA0230]  (AR v2)
Track 15  accurately ripped (confidence 2)  [EFF3BEA6]  (AR v2)
Track 16  accurately ripped (confidence 2)  [93FF208C]  (AR v2)
Track 17  accurately ripped (confidence 2)  [2D24E23B]  (AR v2)
Track 18  accurately ripped (confidence 2)  [16777A5F]  (AR v2)
Track 19  accurately ripped (confidence 2)  [77F4650E]  (AR v2)
Track 20  accurately ripped (confidence 2)  [A49E5F4C]  (AR v2)
Track 21  accurately ripped (confidence 2)  [5A83A5D5]  (AR v2)
Track 22  accurately ripped (confidence 2)  [5FDBD969]  (AR v2)
Track 23  accurately ripped (confidence 2)  [B030273F]  (AR v2)
Track 24  accurately ripped (confidence 2)  [535498DE]  (AR v2)
 
All tracks accurately ripped

End of status report

---- CUETools DB Plugin V2.1.6

[CTDB TOCID: rbYS8DJslZtNxX2tmJJXWtrlRAY-] found
Submit result: rbYS8DJslZtNxX2tmJJXWtrlRAY- has been confirmed
Track | CTDB Status
  1   | (9/9) Accurately ripped
  2   | (9/9) Accurately ripped
  3   | (9/9) Accurately ripped
  4   | (9/9) Accurately ripped
  5   | (9/9) Accurately ripped
  6   | (9/9) Accurately ripped
  7   | (9/9) Accurately ripped
  8   | (9/9) Accurately ripped
  9   | (9/9) Accurately ripped
 10   | (9/9) Accurately ripped
 11   | (9/9) Accurately ripped
 12   | (9/9) Accurately ripped
 13   | (9/9) Accurately ripped
 14   | (9/9) Accurately ripped
 15   | (9/9) Accurately ripped
 16   | (9/9) Accurately ripped
 17   | (9/9) Accurately ripped
 18   | (9/9) Accurately ripped
 19   | (9/9) Accurately ripped
 20   | (9/9) Accurately ripped
 21   | (9/9) Accurately ripped
 22   | (9/9) Accurately ripped
 23   | (9/9) Accurately ripped
 24   | (9/9) Accurately ripped


==== Log checksum AA0742E2C95C649E9D6183F5FDA280B9EFD2C595BA93FE497636FBDA8A90A355 ====



Create a new paste based on this one


Comments: