[ create a new paste ] login | about

Link: http://codepad.org/X9lmKkiK    [ raw code | fork ]

Plain Text, pasted on Mar 23:
Exact Audio Copy V1.0 beta 3 from 29. August 2011

EAC extraction logfile from 8. March 2012, 22:41

Henry Mancini / Friday the 13th: The Final Chapter (Disc 4)

Used drive  : PLEXTOR DVDR   PX-L890SA   Adapter: 1  ID: 1

Read mode               : Secure
Utilize accurate stream : Yes
Defeat audio cache      : Yes
Make use of C2 pointers : No

Read offset correction                      : 6
Overread into Lead-In and Lead-Out          : No
Fill up missing offset samples with silence : Yes
Delete leading and trailing silent blocks   : No
Null samples used in CRC calculations       : Yes
Used interface                              : Installed external ASPI interface
Gap handling                                : Appended to previous track

Used output format              : User Defined Encoder
Selected bitrate                : 1024 kBit/s
Quality                         : High
Add ID3 tag                     : No
Command line compressor         : C:\Program Files\Exact Audio Copy\Flac\flac.exe
Additional command line options : -V -8 -T "Genre=%genre%" -T "Artist=%artist%" -T "Title=%title%" -T "Album=%albumtitle%" -T "Date=%year%" -T "Tracknumber=%tracknr%" -T "Comment=%comment%" %source%


TOC of the extracted CD

     Track |   Start  |  Length  | Start sector | End sector 
    ---------------------------------------------------------
        1  |  0:00.00 |  4:43.18 |         0    |    21242   
        2  |  4:43.18 |  3:41.12 |     21243    |    37829   
        3  |  8:24.30 |  1:39.57 |     37830    |    45311   
        4  | 10:04.12 |  1:08.56 |     45312    |    50467   
        5  | 11:12.68 |  1:28.71 |     50468    |    57138   
        6  | 12:41.64 |  2:16.08 |     57139    |    67346   
        7  | 14:57.72 |  0:39.24 |     67347    |    70295   
        8  | 15:37.21 |  0:39.45 |     70296    |    73265   
        9  | 16:16.66 |  2:15.74 |     73266    |    83464   
       10  | 18:32.65 |  4:01.13 |     83465    |   101552   
       11  | 22:34.03 |  1:52.45 |    101553    |   109997   
       12  | 24:26.48 |  1:59.22 |    109998    |   118944   
       13  | 26:25.70 |  1:36.29 |    118945    |   126173   
       14  | 28:02.24 |  1:28.57 |    126174    |   132830   
       15  | 29:31.06 |  1:51.73 |    132831    |   141228   
       16  | 31:23.04 |  2:44.01 |    141229    |   153529   
       17  | 34:07.05 |  7:12.65 |    153530    |   185994   
       18  | 41:19.70 | 11:00.37 |    185995    |   235531   


Track  1

     Filename F:\torrent\Friday the 13th_Harry Manfredini_6_CD BOX SET\CD4\01 What Boy Ma'am , Main Titles.wav

     Pre-gap length  0:00:02.00

     Peak level 98.8 %
     Extraction speed 5.4 X
     Track quality 100.0 %
     Test CRC F7C3E2E3
     Copy CRC F7C3E2E3
     Accurately ripped (confidence 2)  [D3FD01F4]  (AR v1)
     Copy OK

Track  2

     Filename F:\torrent\Friday the 13th_Harry Manfredini_6_CD BOX SET\CD4\02 Helicopter.wav

     Pre-gap length  0:00:02.00

     Peak level 96.2 %
     Extraction speed 5.8 X
     Track quality 100.0 %
     Test CRC D9D662C3
     Copy CRC D9D662C3
     Accurately ripped (confidence 2)  [194DBCC4]  (AR v1)
     Copy OK

Track  3

     Filename F:\torrent\Friday the 13th_Harry Manfredini_6_CD BOX SET\CD4\03 The Morgue.wav

     Pre-gap length  0:00:02.00

     Peak level 86.5 %
     Extraction speed 5.2 X
     Track quality 100.0 %
     Test CRC 35A3F7AF
     Copy CRC 35A3F7AF
     Accurately ripped (confidence 2)  [3581ECC0]  (AR v1)
     Copy OK

Track  4

     Filename F:\torrent\Friday the 13th_Harry Manfredini_6_CD BOX SET\CD4\04 Hacksaw to Throat.wav

     Pre-gap length  0:00:02.00

     Peak level 88.4 %
     Extraction speed 4.6 X
     Track quality 100.0 %
     Test CRC 3D93F18D
     Copy CRC 3D93F18D
     Accurately ripped (confidence 2)  [CDF6800D]  (AR v1)
     Copy OK

Track  5

     Filename F:\torrent\Friday the 13th_Harry Manfredini_6_CD BOX SET\CD4\05 Squeezing the Banana.wav

     Pre-gap length  0:00:02.00

     Peak level 96.0 %
     Extraction speed 4.1 X
     Track quality 99.8 %
     Test CRC 0891569D
     Copy CRC 0891569D
     Accurately ripped (confidence 2)  [1E88F2D9]  (AR v1)
     Copy OK

Track  6

     Filename F:\torrent\Friday the 13th_Harry Manfredini_6_CD BOX SET\CD4\06 Dock Prank.wav

     Pre-gap length  0:00:02.00

     Peak level 95.4 %
     Extraction speed 5.0 X
     Track quality 99.9 %
     Test CRC A65B343F
     Copy CRC A65B343F
     Accurately ripped (confidence 2)  [42EE1535]  (AR v1)
     Copy OK

Track  7

     Filename F:\torrent\Friday the 13th_Harry Manfredini_6_CD BOX SET\CD4\07 Stalled Car.wav

     Pre-gap length  0:00:02.00

     Peak level 95.9 %
     Extraction speed 4.0 X
     Track quality 100.0 %
     Test CRC D17237CF
     Copy CRC D17237CF
     Accurately ripped (confidence 2)  [FD529B5D]  (AR v1)
     Copy OK

Track  8

     Filename F:\torrent\Friday the 13th_Harry Manfredini_6_CD BOX SET\CD4\08 Tommy's Room.wav

     Pre-gap length  0:00:02.00

     Peak level 88.0 %
     Extraction speed 4.1 X
     Track quality 100.0 %
     Test CRC 5ADBEAF3
     Copy CRC 5ADBEAF3
     Accurately ripped (confidence 2)  [3039AA63]  (AR v1)
     Copy OK

Track  9

     Filename F:\torrent\Friday the 13th_Harry Manfredini_6_CD BOX SET\CD4\09 Midnight Skinny Dip.wav

     Pre-gap length  0:00:02.00

     Peak level 42.6 %
     Extraction speed 6.4 X
     Track quality 100.0 %
     Test CRC 1A70F62A
     Copy CRC 1A70F62A
     Accurately ripped (confidence 2)  [D12464FB]  (AR v1)
     Copy OK

Track 10

     Filename F:\torrent\Friday the 13th_Harry Manfredini_6_CD BOX SET\CD4\10 Paul Gets the Point.wav

     Pre-gap length  0:00:02.00

     Peak level 98.8 %
     Extraction speed 7.4 X
     Track quality 100.0 %
     Test CRC 7DAD2774
     Copy CRC 7DAD2774
     Accurately ripped (confidence 2)  [7A33B5CE]  (AR v1)
     Copy OK

Track 11

     Filename F:\torrent\Friday the 13th_Harry Manfredini_6_CD BOX SET\CD4\11 Mom Looks for Kids.wav

     Pre-gap length  0:00:02.00

     Peak level 94.3 %
     Extraction speed 6.7 X
     Track quality 100.0 %
     Test CRC 44918535
     Copy CRC 44918535
     Accurately ripped (confidence 2)  [43FCFD25]  (AR v1)
     Copy OK

Track 12

     Filename F:\torrent\Friday the 13th_Harry Manfredini_6_CD BOX SET\CD4\12 Lights Out.wav

     Pre-gap length  0:00:02.00

     Peak level 82.2 %
     Extraction speed 6.9 X
     Track quality 100.0 %
     Test CRC 92EAA1A2
     Copy CRC 92EAA1A2
     Accurately ripped (confidence 2)  [3E029AE2]  (AR v1)
     Copy OK

Track 13

     Filename F:\torrent\Friday the 13th_Harry Manfredini_6_CD BOX SET\CD4\13 Jimmy is Screwed , Tina Thrown , Ted Watches Movie.wav

     Pre-gap length  0:00:02.00

     Peak level 95.8 %
     Extraction speed 6.6 X
     Track quality 100.0 %
     Test CRC FAE9BE31
     Copy CRC FAE9BE31
     Accurately ripped (confidence 2)  [3A27DB2A]  (AR v1)
     Copy OK

Track 14

     Filename F:\torrent\Friday the 13th_Harry Manfredini_6_CD BOX SET\CD4\14 Lights! Camera! Hacktion!.wav

     Pre-gap length  0:00:02.00

     Peak level 92.4 %
     Extraction speed 6.6 X
     Track quality 100.0 %
     Test CRC 77019F5F
     Copy CRC 77019F5F
     Accurately ripped (confidence 2)  [91DB5B6C]  (AR v1)
     Copy OK

Track 15

     Filename F:\torrent\Friday the 13th_Harry Manfredini_6_CD BOX SET\CD4\15 You Give Me Cleaver.wav

     Pre-gap length  0:00:02.00

     Peak level 98.4 %
     Extraction speed 7.2 X
     Track quality 100.0 %
     Test CRC C79B2154
     Copy CRC C79B2154
     Accurately ripped (confidence 2)  [DBCF0428]  (AR v1)
     Copy OK

Track 16

     Filename F:\torrent\Friday the 13th_Harry Manfredini_6_CD BOX SET\CD4\16 Trish and Rob.wav

     Pre-gap length  0:00:02.00

     Peak level 85.2 %
     Extraction speed 6.7 X
     Track quality 99.9 %
     Test CRC 22F9415B
     Copy CRC 22F9415B
     Accurately ripped (confidence 2)  [1EC6EA0C]  (AR v1)
     Copy OK

Track 17

     Filename F:\torrent\Friday the 13th_Harry Manfredini_6_CD BOX SET\CD4\17 Tommy Reads , Trish Pleads , Rob and Trish Meet Jason.wav

     Pre-gap length  0:00:02.00

     Peak level 96.5 %
     Extraction speed 9.3 X
     Track quality 100.0 %
     Test CRC 50CCED16
     Copy CRC 50CCED16
     Accurately ripped (confidence 2)  [7A6D87AB]  (AR v1)
     Copy OK

Track 18

     Filename F:\torrent\Friday the 13th_Harry Manfredini_6_CD BOX SET\CD4\18 La Muerte De Jason.wav

     Pre-gap length  0:00:02.00

     Peak level 99.3 %
     Extraction speed 10.3 X
     Track quality 100.0 %
     Test CRC 50CB8122
     Copy CRC 50CB8122
     Accurately ripped (confidence 2)  [DE8A2A14]  (AR v1)
     Copy OK


All tracks accurately ripped

No errors occurred

End of status report

==== Log checksum 7FA8143BC6E0C5C57BC584399C7CCD2A6C6E0D2DB4638B82E307A575F42CC957 ====



Create a new paste based on this one


Comments: