[ create a new paste ] login | about

Link: http://codepad.org/XA21A8xo    [ raw code | fork ]

Plain Text, pasted on Jul 14:
Exact Audio Copy V1.3 from 2. September 2016

EAC extraction logfile from 1. May 2018, 9:35

Spirit / It Shall Be CD5

Used drive  : PLEXTOR BD-R  PX-B950SA   Adapter: 1  ID: 1

Read mode               : Secure
Utilize accurate stream : Yes
Defeat audio cache      : Yes
Make use of C2 pointers : No

Read offset correction                      : 6
Overread into Lead-In and Lead-Out          : No
Fill up missing offset samples with silence : Yes
Delete leading and trailing silent blocks   : No
Null samples used in CRC calculations       : Yes
Used interface                              : Native Win32 interface for Win NT & 2000

Used output format : Internal WAV Routines
Sample format      : 44.100 Hz; 16 Bit; Stereo


TOC of the extracted CD

     Track |   Start  |  Length  | Start sector | End sector 
    ---------------------------------------------------------
        1  |  0:00.00 |  2:13.36 |         0    |    10010   
        2  |  2:13.36 |  4:41.23 |     10011    |    31108   
        3  |  6:54.59 |  3:01.57 |     31109    |    44740   
        4  |  9:56.41 |  5:35.46 |     44741    |    69911   
        5  | 15:32.12 |  4:22.25 |     69912    |    89586   
        6  | 19:54.37 |  2:58.29 |     89587    |   102965   
        7  | 22:52.66 |  2:19.28 |    102966    |   113418   
        8  | 25:12.19 |  1:14.68 |    113419    |   119036   
        9  | 26:27.12 |  2:26.50 |    119037    |   130036   
       10  | 28:53.62 |  3:01.15 |    130037    |   143626   
       11  | 31:55.02 |  3:49.63 |    143627    |   160864   
       12  | 35:44.65 |  4:23.32 |    160865    |   180621   
       13  | 40:08.22 |  6:26.03 |    180622    |   209574   
       14  | 46:34.25 |  3:21.03 |    209575    |   224652   
       15  | 49:55.28 |  2:04.60 |    224653    |   234012   
       16  | 52:00.13 |  3:39.28 |    234013    |   250465   
       17  | 55:39.41 |  2:58.63 |    250466    |   263878   
       18  | 58:38.29 |  3:05.51 |    263879    |   277804   
       19  | 61:44.05 |  5:44.45 |    277805    |   303649   
       20  | 67:28.50 |  2:50.51 |    303650    |   316450   


Range status and errors

Selected range

     Filename C:\Spirit\2018 It Shall Be (5CD Box Set Esoteric Records)\CD5\Spirit - It Shall Be CD5.wav

     Peak level 99.4 %
     Extraction speed 6.1 X
     Range quality 99.9 %
     Test CRC BF43B406
     Copy CRC BF43B406
     Copy OK

No errors occurred

 
AccurateRip summary
 
Track  1  accurately ripped (confidence 2)  [5CE77496]  (AR v2)
Track  2  accurately ripped (confidence 2)  [0EAAD8AF]  (AR v2)
Track  3  accurately ripped (confidence 2)  [0C8FCAAB]  (AR v2)
Track  4  accurately ripped (confidence 2)  [4EEDED37]  (AR v2)
Track  5  accurately ripped (confidence 2)  [9FF7D5E0]  (AR v2)
Track  6  accurately ripped (confidence 2)  [28B31493]  (AR v2)
Track  7  accurately ripped (confidence 2)  [0F34C0DF]  (AR v2)
Track  8  accurately ripped (confidence 2)  [C4FB25FA]  (AR v2)
Track  9  accurately ripped (confidence 2)  [A8C0A50A]  (AR v2)
Track 10  accurately ripped (confidence 2)  [70E8E2AB]  (AR v2)
Track 11  accurately ripped (confidence 2)  [67C40F23]  (AR v2)
Track 12  accurately ripped (confidence 2)  [E789CDE3]  (AR v2)
Track 13  accurately ripped (confidence 2)  [38E3FDEC]  (AR v2)
Track 14  accurately ripped (confidence 2)  [27732E25]  (AR v2)
Track 15  accurately ripped (confidence 2)  [9F8B971A]  (AR v2)
Track 16  accurately ripped (confidence 2)  [45D5A084]  (AR v2)
Track 17  accurately ripped (confidence 2)  [BB50FC70]  (AR v2)
Track 18  accurately ripped (confidence 2)  [3DD0E316]  (AR v2)
Track 19  accurately ripped (confidence 2)  [FE88D943]  (AR v2)
Track 20  accurately ripped (confidence 2)  [4AD501AA]  (AR v2)
 
All tracks accurately ripped

End of status report

---- CUETools DB Plugin V2.1.6

[CTDB TOCID: M2M8mcX_coKMynTCh2dKZO9TE2A-] found
Submit result: M2M8mcX_coKMynTCh2dKZO9TE2A- has been confirmed
Track | CTDB Status
  1   | (8/8) Accurately ripped
  2   | (8/8) Accurately ripped
  3   | (8/8) Accurately ripped
  4   | (8/8) Accurately ripped
  5   | (8/8) Accurately ripped
  6   | (8/8) Accurately ripped
  7   | (8/8) Accurately ripped
  8   | (8/8) Accurately ripped
  9   | (8/8) Accurately ripped
 10   | (8/8) Accurately ripped
 11   | (8/8) Accurately ripped
 12   | (8/8) Accurately ripped
 13   | (8/8) Accurately ripped
 14   | (8/8) Accurately ripped
 15   | (8/8) Accurately ripped
 16   | (8/8) Accurately ripped
 17   | (8/8) Accurately ripped
 18   | (8/8) Accurately ripped
 19   | (8/8) Accurately ripped
 20   | (8/8) Accurately ripped


==== Log checksum 3C634B47D6C37BD9554C3588FAD987F8F9683C6A99CFD924109838D98F59B93A ====



Create a new paste based on this one


Comments: