[ create a new paste ] login | about

Link: http://codepad.org/XBceA2VW    [ raw code | fork ]

Plain Text, pasted on Dec 11:
foobar2000 1.3.17 / Dynamic Range Meter 1.1.1
log date: 2018-12-10 19:53:20

--------------------------------------------------------------------------------
Analyzed: Van Morrison / The Prophet Speaks
--------------------------------------------------------------------------------

DR         Peak         RMS     Duration Track
--------------------------------------------------------------------------------
DR10      -0.57 dB   -13.04 dB      4:40 01-Gonna Send You Back To Where I Got You From
DR11      -0.62 dB   -12.75 dB      5:34 02-Dimples
DR9       -0.62 dB   -11.10 dB      4:23 03-Got To Go Where The Love Is
DR11      -0.30 dB   -13.37 dB      5:32 04-Laughin And Clownin
DR11      -0.57 dB   -13.37 dB      5:37 05-5am Greenwich Mean Time
DR11      -0.55 dB   -12.89 dB      3:45 06-Gotta Get You Off My Mind
DR11      -0.55 dB   -14.41 dB      6:00 07-Teardrops
DR10      -0.42 dB   -13.89 dB      3:35 08-I Love The Life I Live
DR10      -0.51 dB   -11.70 dB      6:22 09-Worried Blues / Rollin And Tumblin
DR11      -0.58 dB   -14.03 dB      6:16 10-Ain't Gonna Moan No More
DR10      -0.36 dB   -12.40 dB      3:45 11-Love Is A Five Letter Word
DR12      -0.59 dB   -14.93 dB      4:29 12-Love Is Hard Work
DR12      -0.69 dB   -14.19 dB      4:03 13-Spirit Will Provide
DR11      -0.66 dB   -13.75 dB      4:55 14-The Prophet Speaks
--------------------------------------------------------------------------------

Number of tracks:  14
Official DR value: DR11

Samplerate:        44100 Hz
Channels:          2
Bits per sample:   16
Bitrate:           876 kbps
Codec:             FLAC
================================================================================




Create a new paste based on this one


Comments: