[ create a new paste ] login | about

Link: http://codepad.org/XDLUmMI7    [ raw code | fork ]

Plain Text, pasted on Aug 21:
foobar2000 1.3.17 / Dynamic Range Meter 1.1.1
log date: 2018-08-21 09:58:04

--------------------------------------------------------------------------------
Analyzed: R.E.M. / Collapse Into Now
--------------------------------------------------------------------------------

DR         Peak         RMS     Duration Track
--------------------------------------------------------------------------------
DR6       -0.60 dB    -7.73 dB      3:31 01-Discoverer
DR6       -0.60 dB    -7.37 dB      2:48 02-All The Best
DR7       -0.60 dB    -8.16 dB      4:15 03-Uberlin
DR7       -0.60 dB    -9.38 dB      3:21 04-Oh My Heart
DR5       -0.60 dB    -7.69 dB      3:49 05-It Happened Today
DR6       -0.60 dB    -8.65 dB      3:26 06-Every Day Is Yours To Win
DR5       -0.60 dB    -6.51 dB      3:13 07-Mine Smell Like Honey
DR8       -0.67 dB   -10.26 dB      3:24 08-Walk It Back
DR5       -0.60 dB    -6.76 dB      2:45 09-Alligator_Aviator_Autopilot_Antimatter
DR5       -0.60 dB    -7.04 dB      1:44 10-That Someone Is You
DR7       -0.60 dB    -9.38 dB      3:03 11-Me, Marlon Brando, Marlon Brando And I
DR8       -0.66 dB   -11.25 dB      5:46 12-Blue
--------------------------------------------------------------------------------

Number of tracks:  12
Official DR value: DR6

Samplerate:        44100 Hz
Channels:          2
Bits per sample:   24
Bitrate:           1584 kbps
Codec:             FLAC
================================================================================




Create a new paste based on this one


Comments: