[ create a new paste ] login | about

Link: http://codepad.org/XS2ISn3a    [ raw code | fork ]

Plain Text, pasted on Jul 13:
[CUETools log; Date: 7/13/2016 5:14:52 PM; Version: 2.1.5]
HDCD: peak extend: none, transient filter: some, gain: none
[CTDB TOCID: VgJyhaaWZs9RrqnHH4kW2Hw0OeI-] found.
Track | CTDB Status
  1   | (12/13) Accurately ripped
  2   | (12/13) Accurately ripped
  3   | (12/13) Accurately ripped
  4   | (12/13) Accurately ripped
  5   | (12/13) Accurately ripped
  6   | (12/13) Accurately ripped
  7   | (12/13) Accurately ripped
  8   | (12/13) Accurately ripped
  9   | (12/13) Accurately ripped
 10   | (12/13) Accurately ripped
 11   | (12/13) Accurately ripped
[AccurateRip ID: 00101fef-008a67d6-ae09130b] found.
Track   [  CRC   |   V2   ] Status
 01     [2d037a2d|5ea85acc] (38+34/74) Accurately ripped
 02     [cf577c9e|3c44e19c] (39+33/74) Accurately ripped
 03     [a8c472b6|e0660ca3] (39+33/74) Accurately ripped
 04     [3cd15877|1689e2b4] (39+34/75) Accurately ripped
 05     [7eb58ede|c1067634] (39+33/74) Accurately ripped
 06     [ae3b4bfb|2eaf894c] (39+34/75) Accurately ripped
 07     [6f962491|6a4aa99c] (39+34/75) Accurately ripped
 08     [f2f8a411|4216b41c] (39+34/75) Accurately ripped
 09     [85ea6f75|1252d98c] (39+35/76) Accurately ripped
 10     [ce47a300|30999969] (39+35/76) Accurately ripped
 11     [afa377c9|03441a84] (39+33/74) Accurately ripped
Offsetted by -30:
 01     [e705cc59] (00/74) No match
 02     [7e08cf69] (00/74) No match (V2 was not tested)
 03     [fe89f0f5] (00/74) No match
 04     [9055c53a] (00/75) No match
 05     [38d17999] (00/74) No match
 06     [064bc092] (00/75) No match
 07     [823964a3] (00/75) No match
 08     [453dbd6f] (00/75) No match
 09     [c45bbf71] (00/76) No match
 10     [50d6f0d2] (00/76) No match
 11     [ab920ea4] (00/74) No match
Offsetted by 6:
 01     [3759a458] (00/74) No match (V2 was not tested)
 02     [5c822b3a] (00/74) No match (V2 was not tested)
 03     [ae2c944f] (00/74) No match (V2 was not tested)
 04     [0e094f00] (00/75) No match (V2 was not tested)
 05     [8d63f282] (00/74) No match (V2 was not tested)
 06     [f1defc75] (00/75) No match (V2 was not tested)
 07     [a89d6a15] (00/75) No match (V2 was not tested)
 08     [c1e231d6] (00/75) No match (V2 was not tested)
 09     [536412a8] (00/76) No match (V2 was not tested)
 10     [357c1dfd] (00/76) No match (V2 was not tested)
 11     [b120273d] (00/74) No match (V2 was not tested)

Track Peak [ CRC32  ] [W/O NULL] [  LOG   ]
 --   99.9 [3475A7C9] [A09FC80C]   CRC32   
 01   94.5 [463E82E3] [CB5C17DC]           
 02   93.4 [155780C7] [AC2CE40B]           
 03   85.0 [96608F7F] [2958455F]           
 04   90.1 [8C1CE790] [97068081]           
 05   99.9 [EDC1FC6C] [D249E7E7]           
 06   72.9 [65320462] [44F41333]           
 07   91.9 [4279DB60] [2420547A]           
 08   90.2 [42CC3137] [BB3618C3]           
 09   85.4 [E9935E7E] [D9BA6DFB]           
 10   75.5 [B95D989B] [5F304C53]           
 11   90.9 [811A9EC6] [955CDAB3]           



Create a new paste based on this one


Comments: