[ create a new paste ] login | about

Link: http://codepad.org/XV81YuCj    [ raw code | fork ]

Plain Text, pasted on Jul 29:
Exact Audio Copy V1.3 from 2. September 2016

EAC extraction logfile from 22. July 2019, 19:19

Tangerine Dream / Live At The Rainbow, London 1

Used drive  : Optiarc DVD RW AD-7280S   Adapter: 1  ID: 0

Read mode               : Secure
Utilize accurate stream : Yes
Defeat audio cache      : Yes
Make use of C2 pointers : No

Read offset correction                      : 48
Overread into Lead-In and Lead-Out          : No
Fill up missing offset samples with silence : Yes
Delete leading and trailing silent blocks   : No
Null samples used in CRC calculations       : Yes
Used interface                              : Native Win32 interface for Win NT & 2000

Used output format : Internal WAV Routines
Sample format      : 44.100 Hz; 16 Bit; Stereo


TOC of the extracted CD

     Track |   Start  |  Length  | Start sector | End sector 
    ---------------------------------------------------------
        1  |  0:00.00 |  2:36.25 |         0    |    11724   
        2  |  2:36.25 | 36:51.61 |     11725    |   177610   
        3  | 39:28.11 | 29:22.42 |    177611    |   309802   


Range status and errors

Selected range

     Filename C:\Tangerine Dream\2019 In Search Of Hades (18-Disc Box Set Universal Music)\CD07-08 1974 Live At The Rainbow, London Part 1 & 2\Tangerine Dream - Live At The Rainbow, London 1.wav

     Peak level 98.8 %
     Extraction speed 7.0 X
     Range quality 99.9 %
     Test CRC 3B28CC0A
     Copy CRC 3B28CC0A
     Copy OK

No errors occurred

 
AccurateRip summary
 
Track  1  not present in database
Track  2  not present in database
Track  3  not present in database
 
None of the tracks are present in the AccurateRip database

End of status report

---- CUETools DB Plugin V2.1.6

[CTDB TOCID: kEqBvnJZLu3ZmNrBj1Vql5_tqJY-] found
Submit result: kEqBvnJZLu3ZmNrBj1Vql5_tqJY- has been confirmed
Track | CTDB Status
  1   | (76/76) Accurately ripped
  2   | (76/76) Accurately ripped
  3   | (71/76) Accurately ripped


==== Log checksum 5D5F8A34C24267FD830E23BFA5EE28EB56C601067C255CD15069D0786C8A9984 ====



Create a new paste based on this one


Comments: