[ create a new paste ] login | about

Link: http://codepad.org/XYqwDaQt    [ raw code | fork ]

Plain Text, pasted on Jan 31:
foobar2000 1.3 / Dynamic Range Meter 1.1.1
log date: 2014-07-28 12:48:03

--------------------------------------------------------------------------------
Analyzed: Epica / The Score: An Epic Journey (Special Edition - Hybrid SACD)
--------------------------------------------------------------------------------

DR         Peak         RMS     Duration Track
--------------------------------------------------------------------------------
DR11      -1.25 dB   -20.52 dB      1:55 01-Vengeance Is Mine
DR13      -0.47 dB   -18.63 dB      3:10 02-Unholy Trinity
DR11      -0.32 dB   -18.08 dB      2:10 03-The Valley
DR13      -0.26 dB   -20.95 dB      4:28 04-Caught In A Web
DR14      -0.61 dB   -22.52 dB      2:09 05-Insomnia
DR13      -0.26 dB   -20.98 dB      2:50 06-Under The Aegis
DR11      -2.17 dB   -20.87 dB      4:43 07-Trois Vierges (Solo Version)
DR11      -1.10 dB   -19.01 dB      2:48 08-Mystica
DR15      -0.86 dB   -24.11 dB      5:41 09-Valley Of Sins
DR10      -5.18 dB   -25.97 dB      2:11 10-Empty Gaze
DR12      -0.60 dB   -21.75 dB      2:26 11-The Alleged Paradigm
DR18      -0.61 dB   -30.71 dB      3:22 12-Supremacy
DR12     -10.17 dB   -28.84 dB      1:58 13-Beyond The Depth
DR10      -2.52 dB   -19.83 dB      1:19 14-Epitome
DR12      -0.57 dB   -21.76 dB      3:53 15-Inevitable Embrace
DR12      -0.54 dB   -21.37 dB      3:30 16-Angel Of Death
DR13      -0.47 dB   -21.86 dB      4:50 17-The Ultimate Return
DR10      -5.09 dB   -23.21 dB      2:07 18-Trois Vierge (Reprise)
DR11      -1.38 dB   -20.30 dB      4:09 19-Solitary Ground (Single Version)
DR10      -0.01 dB   -12.88 dB      3:55 20-Quietus (Score Version)
--------------------------------------------------------------------------------

Number of tracks:  20
Official DR value: DR12

Samplerate:        88200 Hz
Channels:          6
Bits per sample:   24
Bitrate:           7509 kbps
Codec:             FLAC
================================================================================




Create a new paste based on this one


Comments: