[ create a new paste ] login | about

Link: http://codepad.org/XaaKKwxJ    [ raw code | fork ]

Plain Text, pasted on Dec 2:
foobar2000 1.6 / Dynamic Range Meter 1.1.1
log date: 2020-12-02 05:33:33

--------------------------------------------------------------------------------
Analyzed: Floyd Cramer / Class Of '73 & Class Of '74-'75
--------------------------------------------------------------------------------

DR         Peak         RMS     Duration Track
--------------------------------------------------------------------------------
DR13      -2.07 dB   -18.33 dB      3:00 01-My Love  
DR12      -3.25 dB   -19.82 dB      3:45 02-And I Love You So  
DR12      -3.46 dB   -19.53 dB      3:18 03-Killing Me Softly with His Song  
DR12      -2.14 dB   -17.81 dB      3:35 04-Yesterday Once More  
DR11      -2.22 dB   -17.59 dB      3:27 05-Lets Pretend  
DR11      -2.11 dB   -15.53 dB      2:46 06-Will it Go Round in Circles  
DR11      -1.59 dB   -16.18 dB      2:51 07-You are the Sunshine of My Life  
DR12      -1.44 dB   -17.32 dB      2:39 08-The Morning After  
DR11      -2.37 dB   -16.80 dB      2:49 09-Kodachrome  
DR12      -1.29 dB   -17.54 dB      3:21 10-Tie a Yellow Ribbon Round the Old Oak Tree 
DR12      -3.18 dB   -19.12 dB      2:39 11-(Hey, Wont You Play) Another Somebody Done Somebody Wrong Song 
DR10      -4.61 dB   -17.39 dB      2:44 12-The Last Farewell  
DR12      -3.51 dB   -17.06 dB      3:32 13-Have You Never Been Mellow  
DR11      -3.44 dB   -17.89 dB      3:52 14-Mandy 
DR11      -6.64 dB   -23.13 dB      3:31 15-I Honestly Love You  
DR11      -4.34 dB   -18.22 dB      3:19 16-My Melody of Love  
DR13      -4.77 dB   -19.62 dB      2:54 17-Sunshine on My Shoulders  
DR11      -3.18 dB   -18.41 dB      4:12 18-Please Come to Boston  
DR11      -3.88 dB   -18.08 dB      3:35 19-Seasons in the Sun  
DR12      -2.40 dB   -18.24 dB      3:07 20-Time in a Bottle  
--------------------------------------------------------------------------------

Number of tracks:  20
Official DR value: DR12

Samplerate:        88200 Hz
Channels:          2
Bits per sample:   24
Bitrate:           2484 kbps
Codec:             FLAC
================================================================================




Create a new paste based on this one


Comments: