[ create a new paste ] login | about

Link: http://codepad.org/XcAUCzKp    [ raw code | fork ]

Plain Text, pasted on Dec 20:
foobar2000 1.5 / Dynamic Range Meter 1.1.1
log date: 2019-12-20 04:37:42

--------------------------------------------------------------------------------
Analyzed: Bee Gees / Saturday Night Fever Motion Picture Soundtrack [1977 RSO Records "Double Wally" Repress] (1-6)
          David Shire / Saturday Night Fever Motion Picture Soundtrack [1977 RSO Records "Double Wally" Repress] (7-9)
          KC & The Sunshine Band / Saturday Night Fever Motion Picture Soundtrack [1977 RSO Records "Double Wally" Repress] (10)
          Kool & The Gang / Saturday Night Fever Motion Picture Soundtrack [1977 RSO Records "Double Wally" Repress] (11)
          M.F.S.B. / Saturday Night Fever Motion Picture Soundtrack [1977 RSO Records "Double Wally" Repress] (12)
          Ralph MacDonald / Saturday Night Fever Motion Picture Soundtrack [1977 RSO Records "Double Wally" Repress] (13)
          Tavares / Saturday Night Fever Motion Picture Soundtrack [1977 RSO Records "Double Wally" Repress] (14)
          The Trammps / Saturday Night Fever Motion Picture Soundtrack [1977 RSO Records "Double Wally" Repress] (15)
          Walter Murphy / Saturday Night Fever Motion Picture Soundtrack [1977 RSO Records "Double Wally" Repress] (16)
          Yvonne Elliman / Saturday Night Fever Motion Picture Soundtrack [1977 RSO Records "Double Wally" Repress] (17)
--------------------------------------------------------------------------------

DR         Peak         RMS     Duration Track
--------------------------------------------------------------------------------
DR14      -0.42 dB   -15.96 dB      4:44 01-Stayin' Alive
DR12      -2.81 dB   -18.60 dB      4:04 02-How Deep Is Your Love
DR14      -1.25 dB   -16.84 dB      3:32 03-Night Fever
DR12      -1.57 dB   -16.25 dB      3:16 04-More Than A Woman
DR14      -0.97 dB   -17.12 dB      3:59 12-Jive Talkin' [live]
DR13      -2.79 dB   -18.10 dB      4:13 13-You Should Be Dancing
DR12      -1.65 dB   -15.78 dB      4:43 08-Manhattan Skyline
DR12      -1.44 dB   -17.03 dB      5:08 10-Night On Disco Mountain
DR12      -0.25 dB   -15.70 dB      3:50 15-Salsation
DR13      -2.24 dB   -17.71 dB      2:18 14-Boogie Shoes
DR12      -1.78 dB   -16.54 dB      4:00 11-Open Sesame
DR12      -0.88 dB   -14.37 dB      4:12 16-K-Jee
DR13      -1.54 dB   -17.64 dB      7:48 09-Calypso Breakdown
DR11      -1.43 dB   -15.09 dB      3:16 07-More Than A Woman
DR14      -0.49 dB   -15.96 dB     10:51 17-Disco Inferno
DR13      -2.16 dB   -17.27 dB      3:02 06-A Fifth Of Beethoven
DR12      -2.02 dB   -15.64 dB      2:59 05-If I Can't Have You
--------------------------------------------------------------------------------

Number of tracks:  17
Official DR value: DR13

Samplerate:        44100 Hz
Channels:          2
Bits per sample:   16
Bitrate:           807 kbps
Codec:             FLAC
================================================================================




Create a new paste based on this one


Comments: