[ create a new paste ] login | about

Link: http://codepad.org/XkKe5fTk    [ raw code | fork ]

Plain Text, pasted on Jul 23:
foobar2000 1.3.17 / Dynamic Range Meter 1.1.1
log date: 2018-07-23 08:07:34

--------------------------------------------------------------------------------
Analyzed: Ella Fitzgerald / Supreme Jazz
--------------------------------------------------------------------------------

DR         Peak         RMS     Duration Track
--------------------------------------------------------------------------------
DR13      -0.18 dB   -18.83 dB      3:16 01-I┤ve Got The World On A String
DR15      -0.13 dB   -19.13 dB      3:15 02-Ain┤t Nobody┤s Business But My Own
DR14      -0.13 dB   -18.11 dB      3:15 03-Someone To Watch Over Me
DR13      -0.13 dB   -17.54 dB      3:04 04-Lonesome Gal
DR14      -0.11 dB   -19.34 dB      3:16 05-My One And Only
DR12      -0.12 dB   -15.20 dB      2:43 06-The Cheasapeake And Ohio
DR14      -0.14 dB   -17.72 dB      3:12 07-Because Of Rain
DR13      -0.14 dB   -15.48 dB      3:17 08-The Hot Canary
DR13      -0.13 dB   -17.38 dB      3:32 09-Even As You And I
DR10      -0.12 dB   -13.53 dB      3:01 10-Love You Madly
DR13      -0.14 dB   -17.54 dB      3:19 11-Mixed Emotions
DR13      -0.15 dB   -16.73 dB      3:23 12-Give A Little, Get A Little
DR10      -0.06 dB   -14.18 dB      3:14 13-I Don┤t Want To Take A Chance
DR12      -0.13 dB   -15.40 dB      3:12 14-Oops!
DR13      -0.12 dB   -15.98 dB      2:34 15-Necessary Evil
DR12      -0.12 dB   -14.84 dB      3:12 16-Lazy Day
DR15      -0.12 dB   -18.46 dB      2:25 17-Goody Goody
DR14      -0.13 dB   -18.86 dB      2:54 18-Angel Eyes 
DR16      -0.01 dB   -19.74 dB      5:12 19-You┤ll Have to Swing It
DR15      -0.01 dB   -19.66 dB      2:54 20-Melancholy Me
DR13      -0.12 dB   -17.01 dB      2:50 21-Careless
DR13      -0.14 dB   -15.60 dB      2:47 22-Blue Lou
--------------------------------------------------------------------------------

Number of tracks:  22
Official DR value: DR13

Samplerate:        88200 Hz
Channels:          2
Bits per sample:   24
Bitrate:           2593 kbps
Codec:             FLAC
================================================================================




Create a new paste based on this one


Comments: