[ create a new paste ] login | about

Link: http://codepad.org/XkzfSpGM    [ raw code | fork ]

Plain Text, pasted on Jan 27:
Exact Audio Copy V0.99 prebeta 5 from 4. May 2009

EAC extraction logfile from 4. January 2010, 12:45

Various Artists / 12'' 80s Electro Pop (Disc 1)

Used drive  : HL-DT-STDVDRAM GH15F   Adapter: 8  ID: 0

Read mode               : Secure
Utilize accurate stream : Yes
Defeat audio cache      : Yes
Make use of C2 pointers : No

Read offset correction                      : 667
Overread into Lead-In and Lead-Out          : No
Fill up missing offset samples with silence : Yes
Delete leading and trailing silent blocks   : No
Null samples used in CRC calculations       : Yes
Used interface                              : Installed external ASPI interface
Gap handling                                : Appended to previous track

Used output format              : User Defined Encoder
Selected bitrate                : 128 kBit/s
Quality                         : High
Add ID3 tag                     : No
Command line compressor         : C:\Program Files (x86)\Exact Audio Copy\Flac\flac.exe
Additional command line options : -8 -V -T "Artist=%a" -T "Title=%t" -T "Album=%g" -T "Date=%y" -T "Tracknumber=%n" -T "Total Tracks=%x" -T "Genre=%m" -T "Comment=EAC V0.99 prebeta 5, Secure Mode, Test & Copy, AccurateRip, FLAC -8" %s


TOC of the extracted CD

     Track |   Start  |  Length  | Start sector | End sector 
    ---------------------------------------------------------
        1  |  0:00.00 |  7:24.43 |         0    |    33342   
        2  |  7:24.43 |  6:13.18 |     33343    |    61335   
        3  | 13:37.61 | 10:09.10 |     61336    |   107020   
        4  | 23:46.71 |  7:04.73 |    107021    |   138893   
        5  | 30:51.69 |  6:54.15 |    138894    |   169958   
        6  | 37:46.09 |  6:08.55 |    169959    |   197613   
        7  | 43:54.64 |  7:32.71 |    197614    |   231584   
        8  | 51:27.60 |  5:27.58 |    231585    |   256167   
        9  | 56:55.43 |  5:54.52 |    256168    |   282769   
       10  | 62:50.20 |  7:24.37 |    282770    |   316106   
       11  | 70:14.57 |  9:11.56 |    316107    |   357487   


Track  1

     Filename C:\Exact Audio Copy\01 - Frankie Goes To Hollywood - Relax (New York Mix).wav

     Pre-gap length  0:00:02.00

     Peak level 100.0 %
     Track quality 100.0 %
     Test CRC B39F7E30
     Copy CRC B39F7E30
     Accurately ripped (confidence 3)  [0734C7F9]
     Copy OK

Track  2

     Filename C:\Exact Audio Copy\02 - Simple Minds - I Travel (Extended Version).wav

     Pre-gap length  0:00:00.25

     Peak level 100.0 %
     Track quality 99.9 %
     Test CRC 1654F59A
     Copy CRC 1654F59A
     Accurately ripped (confidence 3)  [EB852421]
     Copy OK

Track  3

     Filename C:\Exact Audio Copy\03 - Human League - Hard Times - Love Action [I Believe In Love] (12'' Version).wav

     Pre-gap length  0:00:00.25

     Peak level 100.0 %
     Track quality 100.0 %
     Test CRC 779177F7
     Copy CRC 779177F7
     Accurately ripped (confidence 3)  [9386B93A]
     Copy OK

Track  4

     Filename C:\Exact Audio Copy\04 - Japan - Life In Tokyo (Long Version).wav

     Pre-gap length  0:00:00.25

     Peak level 100.0 %
     Track quality 100.0 %
     Test CRC C69E78A7
     Copy CRC C69E78A7
     Accurately ripped (confidence 3)  [6C9EF1A2]
     Copy OK

Track  5

     Filename C:\Exact Audio Copy\05 - Talk Talk - Such A Shame (12'' Mix).wav

     Pre-gap length  0:00:00.25

     Peak level 100.0 %
     Track quality 100.0 %
     Test CRC ACB2B11B
     Copy CRC ACB2B11B
     Accurately ripped (confidence 2)  [3A903E00]
     Copy OK

Track  6

     Filename C:\Exact Audio Copy\06 - Yazoo - Nobody's Diary (Extended Version).wav

     Pre-gap length  0:00:00.25

     Peak level 85.7 %
     Track quality 100.0 %
     Test CRC D7B13D9A
     Copy CRC D7B13D9A
     Accurately ripped (confidence 2)  [02165B4B]
     Copy OK

Track  7

     Filename C:\Exact Audio Copy\07 - Tin Tin - Kiss Me (US Remix By Francois Kervorkian).wav

     Pre-gap length  0:00:00.25

     Peak level 100.0 %
     Track quality 99.9 %
     Test CRC EEBFA751
     Copy CRC EEBFA751
     Accurately ripped (confidence 3)  [40AB5C5B]
     Copy OK

Track  8

     Filename C:\Exact Audio Copy\08 - Landscape - Einstein A Go Go (12'' Mix).wav

     Pre-gap length  0:00:00.25

     Peak level 100.0 %
     Track quality 100.0 %
     Test CRC 62BAAD88
     Copy CRC 62BAAD88
     Accurately ripped (confidence 3)  [EEEA7F09]
     Copy OK

Track  9

     Filename C:\Exact Audio Copy\09 - Tears For Fears - Change (Extended Version).wav

     Pre-gap length  0:00:00.25

     Peak level 100.0 %
     Track quality 100.0 %
     Test CRC 6D93A376
     Copy CRC 6D93A376
     Accurately ripped (confidence 3)  [20ED2973]
     Copy OK

Track 10

     Filename C:\Exact Audio Copy\10 - Heaven 17 - Play To Win (B.E.F. Disco Mix).wav

     Pre-gap length  0:00:00.25

     Peak level 100.0 %
     Track quality 100.0 %
     Test CRC DD394364
     Copy CRC DD394364
     Accurately ripped (confidence 3)  [07830C19]
     Copy OK

Track 11

     Filename C:\Exact Audio Copy\11 - A Flock Of Seagulls - Wishing [If I Had A Photograph Of You] (Long Version).wav

     Pre-gap length  0:00:00.25

     Peak level 100.0 %
     Track quality 100.0 %
     Test CRC FB890394
     Copy CRC FB890394
     Accurately ripped (confidence 3)  [5F359EBA]
     Copy OK


All tracks accurately ripped

No errors occurred

End of status report



Create a new paste based on this one


Comments: