[ create a new paste ] login | about

Link: http://codepad.org/XoLMD6E3    [ raw code | fork ]

Plain Text, pasted on Mar 19:
Exact Audio Copy V1.3 from 2. September 2016

EAC extraction logfile from 17. March 2019, 8:06

Paul McCartney And Wings / Wild Life CD2 Rough Mixes

Used drive  : PLEXTOR BD-R  PX-B950SA   Adapter: 1  ID: 1

Read mode               : Secure
Utilize accurate stream : Yes
Defeat audio cache      : Yes
Make use of C2 pointers : No

Read offset correction                      : 6
Overread into Lead-In and Lead-Out          : No
Fill up missing offset samples with silence : Yes
Delete leading and trailing silent blocks   : No
Null samples used in CRC calculations       : Yes
Used interface                              : Native Win32 interface for Win NT & 2000

Used output format : Internal WAV Routines
Sample format      : 44.100 Hz; 16 Bit; Stereo


TOC of the extracted CD

     Track |   Start  |  Length  | Start sector | End sector 
    ---------------------------------------------------------
        1  |  0:00.00 |  3:58.18 |         0    |    17867   
        2  |  3:58.18 |  4:24.13 |     17868    |    37680   
        3  |  8:22.31 |  4:27.23 |     37681    |    57728   
        4  | 12:49.54 |  6:41.45 |     57729    |    87848   
        5  | 19:31.24 |  6:44.26 |     87849    |   118174   
        6  | 26:15.50 |  2:18.64 |    118175    |   128588   
        7  | 28:34.39 |  3:36.08 |    128589    |   144796   
        8  | 32:10.47 |  5:53.12 |    144797    |   171283   


Range status and errors

Selected range

     Filename C:\Paul McCartney\1971 Wild Life (4-Disc Box Set Universal Music 2018)\CD2 Rough Mixes\Paul McCartney And Wings - Wild Life CD2 Rough Mixes.wav

     Peak level 97.5 %
     Extraction speed 6.9 X
     Range quality 100.0 %
     Test CRC 9E01915A
     Copy CRC 9E01915A
     Copy OK

No errors occurred

 
AccurateRip summary
 
Track  1  accurately ripped (confidence 8)  [2C8CC8BD]  (AR v2)
Track  2  accurately ripped (confidence 8)  [CC1AB58E]  (AR v2)
Track  3  accurately ripped (confidence 8)  [5DF4798E]  (AR v2)
Track  4  accurately ripped (confidence 8)  [19F80C7B]  (AR v2)
Track  5  accurately ripped (confidence 8)  [8B795442]  (AR v2)
Track  6  accurately ripped (confidence 8)  [830B802B]  (AR v2)
Track  7  accurately ripped (confidence 8)  [B18A4FDB]  (AR v2)
Track  8  accurately ripped (confidence 8)  [0D128634]  (AR v2)
 
All tracks accurately ripped

End of status report

---- CUETools DB Plugin V2.1.6

[CTDB TOCID: BAeDyg7bRMWd376JBNUUdPiMQhM-] found
Submit result: BAeDyg7bRMWd376JBNUUdPiMQhM- has been confirmed
Track | CTDB Status
  1   | (45/45) Accurately ripped
  2   | (45/45) Accurately ripped
  3   | (45/45) Accurately ripped
  4   | (45/45) Accurately ripped
  5   | (45/45) Accurately ripped
  6   | (45/45) Accurately ripped
  7   | (45/45) Accurately ripped
  8   | (45/45) Accurately ripped


==== Log checksum D3E5ED213D78C8021A3B1E95A7DA1D24935579D636E263E4A06B9A8771D08C5F ====



Create a new paste based on this one


Comments: