[ create a new paste ] login | about

Link: http://codepad.org/XruUKxo4    [ raw code | fork ]

Plain Text, pasted on Sep 6:
foobar2000 1.3 / Dynamic Range Meter 1.1.1
log date: 2015-05-12 11:31:15

--------------------------------------------------------------------------------
Analyzed: Muddy Waters / Folk Singer (2011 AP Hybrid SACD)
--------------------------------------------------------------------------------

DR         Peak         RMS     Duration Track
--------------------------------------------------------------------------------
DR14      -1.21 dB   -23.33 dB      4:00 01-My Home Is In The Delta
DR18      -2.90 dB   -26.00 dB      3:33 02-Long Distance
DR17      -3.73 dB   -27.88 dB      5:13 03-My Captain
DR15      -5.63 dB   -24.61 dB      3:15 04-Good Morning School Girl
DR12      -2.48 dB   -20.94 dB      3:13 05-You Gonna Need My Help
DR17      -2.05 dB   -28.49 dB      4:42 06-Cold Weather Blues
DR17      -7.80 dB   -29.04 dB      3:28 07-Big Leg Woman
DR18      -1.71 dB   -24.19 dB      3:29 08-Country Boy
DR15      -1.85 dB   -23.84 dB      3:54 09-Feel Like Going Home
DR13      -1.28 dB   -18.09 dB      2:46 10-The Same Thing (Bonus Track)
DR14      -0.01 dB   -16.66 dB      3:01 11-You Can't Lose What You Ain't Never Had (Bonus Track)
--------------------------------------------------------------------------------

Number of tracks:  11
Official DR value: DR16

Samplerate:        88200 Hz
Channels:          2
Bits per sample:   24
Bitrate:           2694 kbps
Codec:             FLAC
================================================================================




Create a new paste based on this one


Comments: