[ create a new paste ] login | about

Link: http://codepad.org/XtIurnz9    [ raw code | fork ]

Plain Text, pasted on Jun 7:
Exact Audio Copy V1.0 beta 3 from 29. August 2011

EAC extraction logfile from 2. February 2014, 18:43

John Cougar / Nothin' Matters And What If It Did

Used drive  : PLEXTOR BD-R  PX-B950SA   Adapter: 6  ID: 0

Read mode               : Secure
Utilize accurate stream : Yes
Defeat audio cache      : Yes
Make use of C2 pointers : No

Read offset correction                      : 6
Overread into Lead-In and Lead-Out          : No
Fill up missing offset samples with silence : Yes
Delete leading and trailing silent blocks   : No
Null samples used in CRC calculations       : Yes
Used interface                              : Native Win32 interface for Win NT & 2000

Used output format : Internal WAV Routines
Sample format      : 44.100 Hz; 16 Bit; Stereo


TOC of the extracted CD

     Track |   Start  |  Length  | Start sector | End sector 
    ---------------------------------------------------------
        1  |  0:00.00 |  3:50.05 |         0    |    17254   
        2  |  3:50.05 |  4:41.02 |     17255    |    38331   
        3  |  8:31.07 |  3:35.38 |     38332    |    54494   
        4  | 12:06.45 |  4:20.05 |     54495    |    73999   
        5  | 16:26.50 |  4:08.50 |     74000    |    92649   
        6  | 20:35.25 |  4:56.15 |     92650    |   114864   
        7  | 25:31.40 |  3:17.05 |    114865    |   129644   
        8  | 28:48.45 |  0:25.12 |    129645    |   131531   
        9  | 29:13.57 |  3:15.23 |    131532    |   146179   
       10  | 32:29.05 |  0:29.47 |    146180    |   148401   
       11  | 32:58.52 |  3:03.05 |    148402    |   162131   
       12  | 36:01.57 |  3:54.67 |    162132    |   179748   


Range status and errors

Selected range

     Filename C:\John Mellencamp\2013 John Mellencamp 1978-2012 (19CD Box Set Mercury Records)\1980 Nothin' Matters And What If It Did\John Cougar - Nothin' Matters And What If It Did.wav

     Peak level 98.8 %
     Extraction speed 7.4 X
     Range quality 100.0 %
     Test CRC 32DC6878
     Copy CRC 32DC6878
     Copy OK

No errors occurred

 
AccurateRip summary
 
Track  1  accurately ripped (confidence 11)  [92A19853]  (AR v2)
Track  2  accurately ripped (confidence 11)  [EF93C6CC]  (AR v2)
Track  3  accurately ripped (confidence 11)  [8DEF892B]  (AR v2)
Track  4  accurately ripped (confidence 11)  [D82750A6]  (AR v2)
Track  5  accurately ripped (confidence 11)  [98CE09FC]  (AR v2)
Track  6  accurately ripped (confidence 11)  [14100FD3]  (AR v2)
Track  7  accurately ripped (confidence 11)  [58E05BAC]  (AR v2)
Track  8  accurately ripped (confidence 11)  [E393F331]  (AR v2)
Track  9  accurately ripped (confidence 11)  [EC308C49]  (AR v2)
Track 10  accurately ripped (confidence 11)  [2E711CFE]  (AR v2)
Track 11  accurately ripped (confidence 11)  [9AAF2D0D]  (AR v2)
Track 12  accurately ripped (confidence 11)  [9E628A9A]  (AR v2)
 
All tracks accurately ripped

End of status report

==== Log checksum 9198CE0A221D3D2030CAF602E7948AD8C136F3641CF33453264B0551FDA3EF8D ====



Create a new paste based on this one


Comments: