[ create a new paste ] login | about

Link: http://codepad.org/XuIfueni    [ raw code | fork ]

Plain Text, pasted on Jul 4:
Exact Audio Copy V1.1 from 23. June 2015

EAC extraction logfile from 22. May 2016, 13:59

INXS / The Very Best CD1

Used drive  : hp      CDDVDW SH-216BB   Adapter: 1  ID: 0

Read mode               : Secure
Utilize accurate stream : Yes
Defeat audio cache      : Yes
Make use of C2 pointers : No

Read offset correction                      : 6
Overread into Lead-In and Lead-Out          : No
Fill up missing offset samples with silence : Yes
Delete leading and trailing silent blocks   : No
Null samples used in CRC calculations       : Yes
Used interface                              : Native Win32 interface for Win NT & 2000

Used output format : Internal WAV Routines
Sample format      : 44.100 Hz; 16 Bit; Stereo


TOC of the extracted CD

     Track |   Start  |  Length  | Start sector | End sector 
    ---------------------------------------------------------
        1  |  0:00.00 |  3:03.68 |         0    |    13792   
        2  |  3:03.68 |  3:19.43 |     13793    |    28760   
        3  |  6:23.36 |  3:53.06 |     28761    |    46241   
        4  | 10:16.42 |  3:20.30 |     46242    |    61271   
        5  | 13:36.72 |  5:18.41 |     61272    |    85162   
        6  | 18:55.38 |  3:20.08 |     85163    |   100170   
        7  | 22:15.46 |  4:10.23 |    100171    |   118943   
        8  | 26:25.69 |  3:05.55 |    118944    |   132873   
        9  | 29:31.49 |  4:04.51 |    132874    |   151224   
       10  | 33:36.25 |  5:15.06 |    151225    |   174855   
       11  | 38:51.31 |  3:29.07 |    174856    |   190537   
       12  | 42:20.38 |  3:06.60 |    190538    |   204547   
       13  | 45:27.23 |  3:55.19 |    204548    |   222191   
       14  | 49:22.42 |  4:34.26 |    222192    |   242767   
       15  | 53:56.68 |  3:41.38 |    242768    |   259380   
       16  | 57:38.31 |  3:36.12 |    259381    |   275592   
       17  | 61:14.43 |  3:48.14 |    275593    |   292706   
       18  | 65:02.57 |  2:44.25 |    292707    |   305031   
       19  | 67:47.07 |  3:50.70 |    305032    |   322351   
       20  | 71:38.02 |  4:47.21 |    322352    |   343897   


Range status and errors

Selected range

     Filename C:\Users\Arturs\Desktop\INXS - The Very Best CD1.wav

     Peak level 99.6 %
     Extraction speed 8.2 X
     Range quality 100.0 %
     Test CRC F1EE8523
     Copy CRC F1EE8523
     Copy OK

No errors occurred

 
AccurateRip summary
 
Track  1  accurately ripped (confidence 74)  [58B039DC]  (AR v2)
Track  2  accurately ripped (confidence 74)  [68E47B95]  (AR v2)
Track  3  accurately ripped (confidence 74)  [473BC2C3]  (AR v2)
Track  4  accurately ripped (confidence 74)  [D1A9A18F]  (AR v2)
Track  5  accurately ripped (confidence 74)  [7F8954D9]  (AR v2)
Track  6  accurately ripped (confidence 74)  [F24CE50C]  (AR v2)
Track  7  accurately ripped (confidence 74)  [AEB86A8E]  (AR v2)
Track  8  accurately ripped (confidence 73)  [178A0166]  (AR v2)
Track  9  accurately ripped (confidence 74)  [7A912AD1]  (AR v2)
Track 10  accurately ripped (confidence 74)  [8DC066F9]  (AR v2)
Track 11  accurately ripped (confidence 74)  [5BA8A9C0]  (AR v2)
Track 12  accurately ripped (confidence 74)  [10341C39]  (AR v2)
Track 13  accurately ripped (confidence 74)  [F708934D]  (AR v2)
Track 14  accurately ripped (confidence 74)  [097F2F4B]  (AR v2)
Track 15  accurately ripped (confidence 74)  [1625B72A]  (AR v2)
Track 16  accurately ripped (confidence 74)  [13EC3F48]  (AR v2)
Track 17  accurately ripped (confidence 73)  [F4033029]  (AR v2)
Track 18  accurately ripped (confidence 73)  [7E61F4C7]  (AR v2)
Track 19  accurately ripped (confidence 74)  [9615BD31]  (AR v2)
Track 20  accurately ripped (confidence 74)  [EADE4B23]  (AR v2)
 
All tracks accurately ripped

End of status report

---- CUETools DB Plugin V2.1.6

[CTDB TOCID: fyM6u7FXiUxsCITNsWzbgOoJL8E-] found
Submit result: fyM6u7FXiUxsCITNsWzbgOoJL8E- has been confirmed
Track | CTDB Status
  1   | (197/198) Accurately ripped
  2   | (198/198) Accurately ripped
  3   | (198/198) Accurately ripped
  4   | (198/198) Accurately ripped
  5   | (198/198) Accurately ripped
  6   | (198/198) Accurately ripped
  7   | (198/198) Accurately ripped
  8   | (198/198) Accurately ripped
  9   | (198/198) Accurately ripped
 10   | (198/198) Accurately ripped
 11   | (198/198) Accurately ripped
 12   | (197/198) Accurately ripped
 13   | (197/198) Accurately ripped
 14   | (197/198) Accurately ripped
 15   | (197/198) Accurately ripped
 16   | (197/198) Accurately ripped
 17   | (197/198) Accurately ripped
 18   | (197/198) Accurately ripped
 19   | (197/198) Accurately ripped
 20   | (195/198) Accurately ripped, or (2/198) differs in 52 samples @03:24:19


==== Log checksum C8B040D569BE3F65BE3747F8F3FCDF1B5090DD346484A731B8A7F86D27BF2D6C ====



Create a new paste based on this one


Comments: