[ create a new paste ] login | about

Link: http://codepad.org/XuNwnTFX    [ raw code | fork ]

Plain Text, pasted on Mar 16:
[CUETools log; Date: 3/16/2016 2:39:11 PM; Version: 2.1.5]
[CTDB TOCID: j3quyeZsl1.T85CqDOr0nm5Pe5M-] found.
Track | CTDB Status
  1   | (15/16) Accurately ripped
  2   | (15/16) Accurately ripped
  3   | (15/16) Accurately ripped
  4   | (15/16) Accurately ripped
  5   | (15/16) Accurately ripped
  6   | (15/16) Accurately ripped
  7   | (15/16) Accurately ripped
  8   | (15/16) Accurately ripped
  9   | (15/16) Accurately ripped
 10   | (15/16) Accurately ripped
[AccurateRip ID: 000cd858-00665bf2-7807ff0a] found.
Track   [  CRC   |   V2   ] Status
 01     [80f3758d|9f9e99e2] (05+29/34) Accurately ripped
 02     [57027081|15fb6d3a] (05+29/34) Accurately ripped
 03     [0cd00f79|e2048f95] (05+29/34) Accurately ripped
 04     [d67b62af|4f2a0fe8] (05+29/34) Accurately ripped
 05     [5ec73594|b39cefb3] (05+29/34) Accurately ripped
 06     [8ea52a25|1904c5be] (05+29/34) Accurately ripped
 07     [da106e12|2c71ce71] (05+29/34) Accurately ripped
 08     [6b141bcb|d328b281] (05+29/34) Accurately ripped
 09     [1b7d2a74|41b95433] (05+29/34) Accurately ripped
 10     [7539d841|0194247c] (05+29/34) Accurately ripped

Track Peak [ CRC32  ] [W/O NULL] [  LOG   ]
 --  100.0 [80264ECB] [74B05AD5]   CRC32   
 01   96.7 [F63A19C5] [5D41A04B]           
 02   86.7 [7ED00A6F] [4B396EC5]           
 03  100.0 [3E14F93C] [5C425AAB]           
 04   95.9 [91127BAD] [700952B1]           
 05   61.2 [7E323E46] [3B1F8F26]           
 06   86.3 [A8F795A0] [2DFC4B9D]           
 07   86.8 [E9358D4E] [3496DF4C]           
 08   87.1 [29E64AB8] [7F663655]           
 09   90.9 [1545BEAA] [75D7EDE9]           
 10   99.5 [46F8A02D] [D69D8A2C]           



Create a new paste based on this one


Comments: