[ create a new paste ] login | about

Link: http://codepad.org/XuyZjaFm    [ raw code | fork ]

Plain Text, pasted on Jan 9:
Exact Audio Copy V1.0 beta 3 from 29. August 2011

EAC extraction logfile from 14. May 2013, 20:51

Doobie Brothers / Takin' It To The Streets

Used drive  : PLEXTOR BD-R  PX-B950SA   Adapter: 6  ID: 0

Read mode               : Secure
Utilize accurate stream : Yes
Defeat audio cache      : Yes
Make use of C2 pointers : No

Read offset correction                      : 6
Overread into Lead-In and Lead-Out          : No
Fill up missing offset samples with silence : Yes
Delete leading and trailing silent blocks   : No
Null samples used in CRC calculations       : Yes
Used interface                              : Native Win32 interface for Win NT & 2000

Used output format : Internal WAV Routines
Sample format      : 44.100 Hz; 16 Bit; Stereo


TOC of the extracted CD

     Track |   Start  |  Length  | Start sector | End sector 
    ---------------------------------------------------------
        1  |  0:00.00 |  4:58.19 |         0    |    22368   
        2  |  4:58.19 |  4:03.50 |     22369    |    40643   
        3  |  9:01.69 |  4:45.33 |     40644    |    62051   
        4  | 13:47.27 |  3:51.07 |     62052    |    79383   
        5  | 17:38.34 |  3:54.20 |     79384    |    96953   
        6  | 21:32.54 |  5:12.43 |     96954    |   120396   
        7  | 26:45.22 |  4:28.05 |    120397    |   140501   
        8  | 31:13.27 |  4:00.10 |    140502    |   158511   
        9  | 35:13.37 |  4:14.65 |    158512    |   177626   


Range status and errors

Selected range

     Filename C:\Doobie Brothers\2013 Original Album Series (5CD Box Set Rhino Records)\1976 Takin' It To The Streets\Doobie Brothers - Takin' It To The Streets.wav

     Peak level 100.0 %
     Extraction speed 7.0 X
     Range quality 100.0 %
     Test CRC 8F7D2756
     Copy CRC 8F7D2756
     Copy OK

No errors occurred

 
AccurateRip summary
 
Track  1  cannot be verified as accurate (confidence 6)  [1FB3954C], AccurateRip returned [5FB44E71]  (AR v2)
Track  2  cannot be verified as accurate (confidence 6)  [823F6194], AccurateRip returned [2114A628]  (AR v2)
Track  3  cannot be verified as accurate (confidence 6)  [AD6E3C3F], AccurateRip returned [75EDEE17]  (AR v2)
Track  4  cannot be verified as accurate (confidence 6)  [ABDE5974], AccurateRip returned [94ACB970]  (AR v2)
Track  5  cannot be verified as accurate (confidence 6)  [7CC0CCC4], AccurateRip returned [6199DEA3]  (AR v2)
Track  6  cannot be verified as accurate (confidence 6)  [CED68715], AccurateRip returned [7EDC91AB]  (AR v2)
Track  7  cannot be verified as accurate (confidence 6)  [4148CE79], AccurateRip returned [C6E64D02]  (AR v2)
Track  8  cannot be verified as accurate (confidence 6)  [7AC24703], AccurateRip returned [C89AFF1F]  (AR v2)
Track  9  cannot be verified as accurate (confidence 6)  [45E14B45], AccurateRip returned [02D58726]  (AR v2)
 
No tracks could be verified as accurate
You may have a different pressing from the one(s) in the database

End of status report

==== Log checksum 7D3580644FE30B5BDBB3D96389F1D152736A91C303FCFC64711CB0ACF13415DB ====



Create a new paste based on this one


Comments: