[ create a new paste ] login | about

Link: http://codepad.org/Xvg0AWeq    [ raw code | fork ]

Plain Text, pasted on Nov 16:
foobar2000 1.4.6 / Dynamic Range Meter 1.1.1
log date: 2019-11-15 23:12:20

--------------------------------------------------------------------------------
Analyzed: Various Artists / The World's Greatest Audiophile Vocal Recordings
--------------------------------------------------------------------------------

DR         Peak         RMS     Duration Track
--------------------------------------------------------------------------------
DR13      -0.28 dB   -17.03 dB      3:44 01-Spanish Harlem
DR15      -0.10 dB   -19.26 dB      4:31 02-Isn't She Lovely
DR12      -2.07 dB   -16.88 dB      4:28 03-Fever
DR13      -1.80 dB   -21.58 dB      2:23 04-Ain't No Sunshine
DR13      -1.81 dB   -18.53 dB      3:19 05-The Girl From Ipanema
DR12      -3.94 dB   -20.92 dB      3:48 06-Round Midnight
DR13      -0.10 dB   -20.70 dB      4:28 07-What A Little More Rain
DR11      -0.10 dB   -17.20 dB      3:56 08-Cielito Lindo
DR13      -1.57 dB   -20.49 dB      4:20 09-Isn't It A Pity
DR14      -2.64 dB   -21.61 dB      3:01 10-La Haban Joven
DR13      -3.26 dB   -20.73 dB      4:38 11-Once Upon A Summertime
DR13      -4.49 dB   -22.14 dB      3:39 12-Meditation
--------------------------------------------------------------------------------

Number of tracks:  12
Official DR value: DR13

Samplerate:        96000 Hz
Channels:          2
Bits per sample:   24
Bitrate:           2850 kbps
Codec:             FLAC
================================================================================




Create a new paste based on this one


Comments: