[ create a new paste ] login | about

Link: http://codepad.org/XwaYMWbD    [ raw code | fork ]

Plain Text, pasted on Dec 6:
foobar2000 1.5 / Dynamic Range Meter 1.1.1
log date: 2019-12-06 17:33:04

--------------------------------------------------------------------------------
Analyzed: Robert Johnson / King Of The Delta Blues: The Complete Recordings [2010 Doxy Records EU 3x Vinyl Box Set]
--------------------------------------------------------------------------------

DR         Peak         RMS     Duration Track
--------------------------------------------------------------------------------
DR10      -2.52 dB   -15.68 dB      2:52 01-Kindhearted Woman Blues
DR11      -2.14 dB   -16.79 dB      2:33 02-Kindhearted Woman Blues [alternate take]
DR12      -2.20 dB   -16.48 dB      2:58 03-I Believe I'll Dust My Broom
DR11      -0.23 dB   -15.28 dB      3:01 04-Sweet Home Chicago
DR11      -1.62 dB   -16.24 dB      2:53 05-Ramblin' On My Mind
DR13      -0.22 dB   -16.01 dB      2:24 06-Ramblin' On My Mind [alternate take]
DR10      -1.89 dB   -14.68 dB      2:39 07-When You Got A Good Friend
DR13      -1.30 dB   -17.41 dB      2:52 08-When You Got A Good Friend [alternate take]
DR12      -2.98 dB   -17.73 dB      2:50 09-Come On In My Kitchen
DR11      -1.51 dB   -14.47 dB      2:37 10-Come On In My Kitchen [alternate take]
DR9       -3.37 dB   -14.30 dB      3:01 11-Terraplane Blues
DR14      -0.11 dB   -16.79 dB      2:40 12-Phonograph Blues
DR12      -0.12 dB   -15.51 dB      2:36 13-Phonograph Blues [alternate take]
DR13      -0.09 dB   -14.71 dB      3:00 15-They're Red Hot
DR13      -2.42 dB   -18.59 dB      2:32 16-Dead Shrimp Blues
DR9       -5.25 dB   -16.23 dB      2:41 17-Cross Road Blues
DR10      -5.06 dB   -18.08 dB      2:31 18-Cross Road Blues [alternate take]
DR12      -2.66 dB   -17.52 dB      2:31 19-Walking Blues
DR11      -3.14 dB   -16.59 dB      2:53 20-32-20 Blues
DR12      -4.25 dB   -18.22 dB      2:42 20-Last Fair Deal Gone Down
DR11      -2.66 dB   -16.87 dB      2:52 21-Preaching Blues (Up Jumped The Devil)
DR12      -1.90 dB   -16.58 dB      2:36 22-If I Had Possession Over Judgment Day
DR12      -3.36 dB   -17.31 dB      2:30 23-Stones In My Passway
DR11      -1.56 dB   -15.62 dB      2:37 24-I'm A Steady Rollin' Man
DR12      -0.11 dB   -14.81 dB      2:25 25-From Four Till Late
DR11      -1.62 dB   -15.80 dB      2:38 26-Hellhound On My Trail
DR12      -1.39 dB   -15.59 dB      2:14 27-Little Queen Of Spades
DR12      -0.06 dB   -16.70 dB      2:17 28-Little Queen Of Spades [alternate take]
DR9       -2.76 dB   -13.78 dB      2:19 29-Malted Milk
DR9       -3.80 dB   -14.33 dB      2:27 30-Drunken Hearted Man
DR10      -3.24 dB   -16.19 dB      2:21 31-Drunken Hearted Man [alternate take]
DR13      -2.36 dB   -20.27 dB      2:37 32-Me And The Devil Blues
DR8       -6.12 dB   -18.49 dB      2:33 33-Me And The Devil Blues [alternate take]
DR14      -0.53 dB   -18.44 dB      2:18 34-Stop Breakin' Down Blues
DR10      -4.15 dB   -17.31 dB      2:24 35-Stop Breakin' Down Blues [alternate take]
DR12      -0.80 dB   -15.78 dB      2:49 36-Traveling Riverside Blues
DR11      -3.63 dB   -17.67 dB      2:18 37-Honeymoon Blues
DR12      -4.13 dB   -21.59 dB      2:31 38-Love In Vain Blues
DR14      -1.11 dB   -18.89 dB      2:21 39-Love In Vain Blues [alternate take]
DR12      -4.80 dB   -20.19 dB      2:17 40-Milkcow's Calf Blues
DR11      -3.64 dB   -17.81 dB      2:25 41-Milkcow's Calf Blues [alternate take]
--------------------------------------------------------------------------------

Number of tracks:  41
Official DR value: DR11

Samplerate:        44100 Hz
Channels:          2
Bits per sample:   16
Bitrate:           405 kbps
Codec:             FLAC
================================================================================




Create a new paste based on this one


Comments: