[ create a new paste ] login | about

Link: http://codepad.org/Xx5Zo06r    [ raw code | fork ]

Plain Text, pasted on Aug 16:
foobar2000 1.4.4 / Dynamic Range Meter 1.1.1
log date: 2019-08-16 09:35:36

--------------------------------------------------------------------------------
Analyzed: Bob Dylan / Blood On The Tracks [Mobile Fidelity Sound Labs One-Step 45RPM Vinyl]
--------------------------------------------------------------------------------

DR         Peak         RMS     Duration Track
--------------------------------------------------------------------------------
DR13      -0.40 dB   -15.36 dB      5:41 01-Tangled Up In Blue
DR12      -0.77 dB   -16.41 dB      4:17 02-Simple Twist Of Fate
DR12      -2.82 dB   -18.41 dB      4:33 03-You're A Big Girl Now
DR13      -0.50 dB   -15.86 dB      7:48 04-Idiot Wind
DR11      -1.85 dB   -16.64 dB      2:55 05-You're Gonna Make Me Lonesome When You Go
DR13      -1.58 dB   -17.12 dB      4:21 06-Meet Me In The Morning
DR12      -1.32 dB   -14.85 dB      8:50 07-Lily, Rosemary And The Jack Of Hearts
DR11      -4.36 dB   -18.36 dB      4:48 08-If You See Her, Say Hello
DR13      -1.68 dB   -18.00 dB      5:00 09-Shelter From The Storm
DR13      -4.09 dB   -19.50 dB      3:25 10-Buckets Of Rain
--------------------------------------------------------------------------------

Number of tracks:  10
Official DR value: DR12

Samplerate:        192000 Hz
Channels:          2
Bits per sample:   24
Bitrate:           4993 kbps
Codec:             FLAC
================================================================================




Create a new paste based on this one


Comments: