[ create a new paste ] login | about

Link: http://codepad.org/XxW5zn0p    [ raw code | fork ]

Plain Text, pasted on Apr 24:
[CUETools log; Date: 4/24/2018 8:08:14 AM; Version: 2.1.5]
[CTDB TOCID: E_A42gxejuJNkA.oR6pEwFKXcaA-] found.
Track | CTDB Status
  1   | (7/7) Accurately ripped
  2   | (7/7) Accurately ripped
  3   | (7/7) Accurately ripped
  4   | (7/7) Accurately ripped
  5   | (7/7) Accurately ripped
  6   | (7/7) Accurately ripped
  7   | (7/7) Accurately ripped
  8   | (7/7) Accurately ripped
  9   | (7/7) Accurately ripped
 10   | (7/7) Accurately ripped
 11   | (7/7) Accurately ripped
 12   | (7/7) Accurately ripped
[AccurateRip ID: 000f6e92-008fc5b1-aa07ec0c] found.
Track   [  CRC   |   V2   ] Status
 01     [1e217140|7cd0b8fd] (16+18/34) Accurately ripped
 02     [558360cc|920bbb69] (15+18/33) Accurately ripped
 03     [14c82648|3022dcc1] (16+18/34) Accurately ripped
 04     [fdcc9340|6fc22456] (16+18/34) Accurately ripped
 05     [1bb663b7|ff8f7c75] (16+18/34) Accurately ripped
 06     [53bd21c3|7298f1df] (16+18/34) Accurately ripped
 07     [08f4c39b|a6953984] (16+18/34) Accurately ripped
 08     [2b494de1|32349503] (16+18/34) Accurately ripped
 09     [a50fc49d|d65baf18] (16+18/34) Accurately ripped
 10     [6693b507|52bd0de7] (16+18/34) Accurately ripped
 11     [23227148|99cafc29] (16+18/34) Accurately ripped
 12     [a97f1240|9a8d9935] (16+18/34) Accurately ripped

Track Peak [ CRC32  ] [W/O NULL] [  LOG   ]
 --  100.0 [1B37565A] [7C06B89B]   CRC32   
 01   96.9 [C00CDC3D] [8BA5FBAE]           
 02   97.7 [507D48AB] [99245559]           
 03   99.8 [9034C5CC] [61A197BC]           
 04   98.5 [E6F3470D] [0565EB8D]           
 05   99.6 [FB5B1610] [8ECCEB00]           
 06   82.7 [125D5259] [5E40CDAA]           
 07  100.0 [065F28DA] [2D022C10]           
 08   98.8 [3F880D28] [70767754]           
 09  100.0 [E650073D] [F5058CC4]           
 10   99.1 [51F43E03] [0684FE49]           
 11   99.1 [8781C0EB] [68AD8098]           
 12   99.4 [9D7D0922] [A8F64DE5]           



Create a new paste based on this one


Comments: