[ create a new paste ] login | about

Link: http://codepad.org/Y5Jxtgdu    [ raw code | fork ]

Plain Text, pasted on Feb 27:
foobar2000 1.5 / Dynamic Range Meter 1.1.1
log date: 2020-02-27 19:35:37

--------------------------------------------------------------------------------
Analyzed: Steve Miller Band / Fly Like An Eagle
--------------------------------------------------------------------------------

DR         Peak         RMS     Duration Track
--------------------------------------------------------------------------------
DR7       -7.90 dB   -18.71 dB      1:15 01-Space Intro
DR13      -0.10 dB   -16.69 dB      4:45 02-Fly Like An Eagle
DR12      -1.42 dB   -15.85 dB      4:51 03-Wild Mountain Honey
DR12      -3.99 dB   -17.63 dB      3:11 04-Serenade
DR13      -1.24 dB   -16.60 dB      2:17 05-Dance, Dance, Dance
DR14      -0.33 dB   -16.78 dB      3:44 06-Mercury Blues
DR13      -2.32 dB   -17.10 dB      2:49 07-Take The Money And Run
DR13      -0.05 dB   -14.73 dB      3:05 08-Rock 'N Me
DR12      -1.44 dB   -15.16 dB      2:41 09-You Send Me
DR8       -7.23 dB   -20.45 dB      0:54 10-Blue Odyssey
DR12      -5.87 dB   -22.85 dB      4:18 11-Sweet Maree
DR12      -2.17 dB   -16.83 dB      4:18 12-The Window
--------------------------------------------------------------------------------

Number of tracks:  12
Official DR value: DR12

Samplerate:        44100 Hz
Channels:          2
Bits per sample:   16
Bitrate:           714 kbps
Codec:             FLAC
================================================================================




Create a new paste based on this one


Comments: