[ create a new paste ] login | about

Link: http://codepad.org/Y5ZIsYyP    [ raw code | fork ]

Plain Text, pasted on Oct 30:
1
2
3
4
5
6
7
8
9
10
11
12
13
14
15
16
17
18
19
20
21
22
23
24
25
26
27
28
29
30
31
32
33
34
35
36
37
38
39
40
41
42
43
44
45
46
47
48
49
50
51
52
53
54
55
56
57
58
59
60
61
62
63
64
65
66
67
68
69
70
71
72
73
74
75
76
77
78
79
80
81
82
83
84
85
86
87
88
89
90
91
92
93
94
95
96
97
98
99
100
101
102
103
104
105
106
107
108
109
110
111
112
113
114
115
116
117
118
119
120
121
122
123
124
125
126
127
128
129
130
131
132
133
134
135
136
137
138
139
140
141
142
143
144
145
146
147
148
149
150
151
152
153
154
155
156
157
158
159
160
161
162
163
164
165
166
167
168
169
170
171
172
173
174
175
176
177
178
179
180
181
182
183
184
185
186
187
188
189
190
191
192
193
194
195
196
197
198
199
200
201
202
203
204
205
206
207
208
209
210
211
212
213
214
215
216
217
218
219
220
221
222
223
224
225
226
227
228
229
230
231
232
233
234
235
236
237
238
239
240
241
242
243
244
245
246
247
248
249
250
251
252
253
254
255
256
257
258
259
260
261
262
263
264
265
266
267
268
269
270
271
272
273
274
275
276
277
278
279
280
281
282
283
284
285
286
287
288
289
290
291
292
293
294
295
296
297
298
299
300
301
302
303
304
305
306
307
308
309
310
311
312
313
314
315
316
317
318
319
320
321
322
323
324
325
326
327
328
329
330
331
332
333
334
335
336
337
338
339
340
341
342
343
344
345
346
347
348
349
350
351
352
353
354
355
356
357
358
359
360
361
362
363
364
365
366
367
368
369
370
371
372
373
374
375
376
377
378
379
380
381
382
383
384
385
386
387
388
389
390
391
392
393
394
395
396
397
398
399
400
401
402
403
404
405
406
407
408
409
410
411
412
413
414
415
416
417
418
419
420
421
422
423
424
425
426
427
428
429
430
431
432
433
434
435
436
437
438
439
440
441
442
443
444
445
446
447
448
449
450
451
452
453
454
455
456
457
458
459
460
461
462
463
464
465
466
467
468
469
470
471
472
473
474
475
476
477
478
479
480
481
482
483
484
485
486
487
488
489
490
491
492
493
494
495
496
497
498
499
500
501
502
503
504
505
506
507
508
509
510
511
512
513
514
515
516
517
518
519
520
521
522
523
524
525
526
527
528
529
530
531
532
533
534
535
536
537
538
539
540
541
542
543
544
545
546
547
548
549
550
551
552
553
554
555
556
557
558
559
560
561
562
563
564
565
566
567
568
569
570
571
572
573
574
575
576
577
578
579
580
581
582
583
584
585
586
587
588
589
590
591
592
593
594
595
596
597
598
599
600
601
602
603
604
605
606
607
608
609
610
611
612
613
614
615
616
617
618
619
620
621
622
623
624
625
626
627
628
629
630
631
Disc Title:     CURÆTION-25: From There To Here | From Here To There
Disc Label:     EVB335799_DISC1
Disc Size:      43,248,275,557 bytes
Protection:     AACS
BDInfo:         0.7.5.5

Notes:          

BDINFO HOME:
  Cinema Squid (old)
    http://www.cinemasquid.com/blu-ray/tools/bdinfo
  UniqProject GitHub (new)
   https://github.com/UniqProject/BDInfo

INCLUDES FORUMS REPORT FOR:
  AVS Forum Blu-ray Audio and Video Specifications Thread
    http://www.avsforum.com/avs-vb/showthread.php?t=1155731


********************
PLAYLIST: 00000.MPLS
********************

<--- BEGIN FORUMS PASTE --->
[code]
                                                                                                                Total   Video                                             
Title                                                           Codec   Length  Movie Size      Disc Size       Bitrate Bitrate Main Audio Track                          Secondary Audio Track
-----                                                           ------  ------- --------------  --------------  ------- ------- ------------------                        ---------------------
00000.MPLS                                                      AVC     2:24:13 42,694,883,328  43,248,275,557  39.47   29.98   LPCM 2.0 2304Kbps (48kHz/24-bit)          DTS-HD Master 5.1 5197Kbps (48kHz/24-bit)
[/code]

[code]

DISC INFO:

Disc Title:     CURÆTION-25: From There To Here | From Here To There
Disc Label:     EVB335799_DISC1
Disc Size:      43,248,275,557 bytes
Protection:     AACS
BDInfo:         0.7.5.5

PLAYLIST REPORT:

Name:                   00000.MPLS
Length:                 2:24:13.945 (h:m:s.ms)
Size:                   42,694,883,328 bytes
Total Bitrate:          39.47 Mbps

VIDEO:

Codec                   Bitrate             Description     
-----                   -------             -----------     
MPEG-4 AVC Video        29977 kbps          1080i / 29.970 fps / 16:9 / High Profile 4.1

AUDIO:

Codec                           Language        Bitrate         Description     
-----                           --------        -------         -----------     
LPCM Audio                      English         2304 kbps       2.0 / 48 kHz /  2304 kbps / 24-bit
DTS-HD Master Audio             English         5197 kbps       5.1 / 48 kHz /  5197 kbps / 24-bit (DTS Core: 5.1 / 48 kHz /  1509 kbps / 24-bit)

FILES:

Name            Time In         Length          Size            Total Bitrate   
----            -------         ------          ----            -------------   
00002.M2TS      0:00:00.000     0:00:01.000     1,081,344       8,642           
00000.M2TS      0:00:01.000     1:07:14.964     20,158,150,656  39,967          
00001.M2TS      1:07:15.965     1:16:56.979     22,534,766,592  39,047          
00011.M2TS      2:24:12.944     0:00:01.000     884,736         7,071           

CHAPTERS:

Number          Time In         Length          Avg Video Rate  Max 1-Sec Rate  Max 1-Sec Time  Max 5-Sec Rate  Max 5-Sec Time  Max 10Sec Rate  Max 10Sec Time  Avg Frame Size  Max Frame Size  Max Frame Time  
------          -------         ------          --------------  --------------  --------------  --------------  --------------  --------------  --------------  --------------  --------------  --------------  
1               0:00:00.000     0:03:55.034     29,699 kbps     39,463 kbps     00:00:53.853    37,931 kbps     00:00:39.539    37,816 kbps     00:00:34.534    123,850 bytes   391,317 bytes   00:00:54.487    
2               0:03:55.034     0:05:58.958     20,554 kbps     39,566 kbps     00:09:47.987    37,423 kbps     00:09:47.787    30,780 kbps     00:09:43.983    85,728 bytes    276,511 bytes   00:09:49.689    
3               0:09:53.993     0:04:37.010     34,722 kbps     45,298 kbps     00:14:11.817    38,576 kbps     00:09:58.264    38,022 kbps     00:11:31.457    144,818 bytes   344,197 bytes   00:10:02.935    
4               0:14:31.003     0:04:33.940     34,797 kbps     40,306 kbps     00:15:08.374    38,290 kbps     00:17:06.492    37,979 kbps     00:17:02.454    145,132 bytes   323,026 bytes   00:14:41.714    
5               0:19:04.943     0:03:08.054     34,658 kbps     42,783 kbps     00:19:32.437    38,544 kbps     00:19:28.333    37,744 kbps     00:20:15.047    144,551 bytes   349,417 bytes   00:19:33.071    
6               0:22:12.998     0:04:16.990     34,234 kbps     41,016 kbps     00:22:26.111    38,170 kbps     00:24:26.598    37,998 kbps     00:26:13.571    142,785 bytes   355,062 bytes   00:22:28.213    
7               0:26:29.988     0:03:40.019     32,201 kbps     40,289 kbps     00:29:33.738    38,176 kbps     00:28:24.369    37,960 kbps     00:28:19.364    134,304 bytes   335,963 bytes   00:29:49.587    
8               0:30:10.008     0:07:14.967     27,515 kbps     44,200 kbps     00:36:58.583    37,828 kbps     00:32:53.738    37,685 kbps     00:32:02.053    114,759 bytes   396,443 bytes   00:36:59.250    
9               0:37:24.976     0:03:42.021     28,761 kbps     38,939 kbps     00:37:38.222    37,937 kbps     00:38:22.133    37,290 kbps     00:38:03.180    119,956 bytes   313,951 bytes   00:37:38.990    
10              0:41:06.997     0:04:11.184     28,485 kbps     38,666 kbps     00:42:54.571    38,012 kbps     00:44:42.212    37,867 kbps     00:44:42.212    118,805 bytes   299,513 bytes   00:43:24.468    
11              0:45:18.182     0:07:22.842     29,225 kbps     39,582 kbps     00:51:29.786    38,032 kbps     00:51:43.533    37,857 kbps     00:51:38.528    121,894 bytes   343,447 bytes   00:49:12.983    
12              0:52:41.024     0:04:15.989     27,591 kbps     45,910 kbps     00:54:20.223    37,836 kbps     00:55:59.189    36,746 kbps     00:56:27.050    115,077 bytes   579,450 bytes   00:54:47.484    
13              0:56:57.013     0:04:35.008     34,095 kbps     43,735 kbps     00:57:24.908    38,903 kbps     00:58:45.588    37,955 kbps     00:57:23.173    142,203 bytes   634,119 bytes   00:59:45.882    
14              1:01:32.021     0:05:43.943     35,294 kbps     42,701 kbps     01:01:57.180    38,805 kbps     01:05:53.416    38,201 kbps     01:05:48.444    147,205 bytes   319,936 bytes   01:01:57.613    
15              1:07:15.965     0:03:54.033     26,330 kbps     40,611 kbps     01:09:41.377    37,968 kbps     01:08:03.212    37,170 kbps     01:10:22.651    109,816 bytes   283,749 bytes   01:08:14.190    
16              1:11:09.999     0:04:40.013     31,833 kbps     43,254 kbps     01:13:33.442    38,549 kbps     01:11:58.414    37,941 kbps     01:15:27.723    132,771 bytes   370,353 bytes   01:12:01.483    
17              1:15:50.012     0:04:35.008     33,004 kbps     40,997 kbps     01:19:46.715    37,957 kbps     01:20:01.463    37,804 kbps     01:19:57.325    137,654 bytes   327,467 bytes   01:19:12.380    
18              1:20:25.020     0:05:42.942     33,214 kbps     43,232 kbps     01:20:50.345    38,703 kbps     01:20:46.341    37,992 kbps     01:20:41.269    138,530 bytes   348,764 bytes   01:21:50.839    
19              1:26:07.962     0:05:24.057     28,628 kbps     45,267 kbps     01:26:40.228    39,172 kbps     01:26:36.224    37,734 kbps     01:26:36.758    119,404 bytes   336,813 bytes   01:26:40.962    
20              1:31:32.019     0:07:42.929     28,824 kbps     45,155 kbps     01:34:56.657    39,229 kbps     01:34:52.653    37,756 kbps     01:31:41.162    120,220 bytes   381,297 bytes   01:35:37.398    
21              1:39:14.948     0:08:03.015     22,243 kbps     39,487 kbps     01:44:27.628    35,334 kbps     01:44:27.427    33,685 kbps     01:44:26.360    92,770 bytes    260,732 bytes   01:43:33.040    
22              1:47:17.964     0:05:00.033     30,529 kbps     41,782 kbps     01:49:51.418    38,097 kbps     01:51:36.456    37,905 kbps     01:51:31.651    127,333 bytes   342,755 bytes   01:51:59.579    
23              1:52:17.997     0:05:08.975     25,718 kbps     39,344 kbps     01:57:05.985    37,955 kbps     01:52:31.144    37,551 kbps     01:55:06.132    107,264 bytes   294,237 bytes   01:52:28.675    
24              1:57:26.973     0:04:44.017     32,006 kbps     42,123 kbps     02:00:19.645    38,084 kbps     01:57:27.373    37,818 kbps     01:58:59.365    133,491 bytes   368,428 bytes   02:01:24.410    
25              2:02:10.990     0:06:45.004     32,684 kbps     47,362 kbps     02:03:46.051    39,658 kbps     02:03:41.981    38,498 kbps     02:03:37.042    136,321 bytes   484,807 bytes   02:08:28.767    
26              2:08:55.994     0:04:05.878     33,539 kbps     40,358 kbps     02:10:35.494    38,296 kbps     02:12:48.493    37,954 kbps     02:12:43.488    139,884 bytes   338,499 bytes   02:10:49.074    
27              2:13:01.873     0:06:32.091     31,724 kbps     41,949 kbps     02:14:18.683    38,607 kbps     02:14:14.613    37,875 kbps     02:16:39.324    132,316 bytes   399,144 bytes   02:17:29.407    
28              2:19:33.965     0:04:38.978     26,715 kbps     41,173 kbps     02:22:15.059    38,243 kbps     02:22:21.766    37,966 kbps     02:22:16.728    111,425 bytes   373,317 bytes   02:23:18.089    
29              2:24:12.944     0:00:01.001     111 kbps        0 kbps          00:00:00.000    0 kbps          00:00:00.000    0 kbps          00:00:00.000    478 bytes       2,441 bytes     02:24:13.544    

STREAM DIAGNOSTICS:

File            PID             Type            Codec           Language                Seconds                 Bitrate                 Bytes           Packets         
----            ---             ----            -----           --------                --------------          --------------          -------------   -----           
00002.M2TS      4113 (0x1011)   0x1B            AVC                                     0.868                   4,592                   497,949         2,714           
00002.M2TS      4352 (0x1100)   0x80            LPCM            eng (English)           0.868                   2,676                   290,244         1,608           
00002.M2TS      4353 (0x1101)   0x86            DTS-HD MA       eng (English)           0.868                   1,803                   195,520         1,222           
00000.M2TS      4113 (0x1011)   0x1B            AVC                                     4034.831                30,468                  15,366,720,303  83,585,645      
00000.M2TS      4352 (0x1100)   0x80            LPCM            eng (English)           4034.831                2,310                   1,165,297,892   6,455,944       
00000.M2TS      4353 (0x1101)   0x86            DTS-HD MA       eng (English)           4034.831                5,178                   2,611,603,856   14,813,600      
00001.M2TS      4113 (0x1011)   0x1B            AVC                                     4616.879                29,561                  17,059,830,897  92,797,499      
00001.M2TS      4352 (0x1100)   0x80            LPCM            eng (English)           4616.879                2,310                   1,333,383,824   7,387,168       
00001.M2TS      4353 (0x1101)   0x86            DTS-HD MA       eng (English)           4616.879                5,215                   3,009,648,528   17,029,250      
00011.M2TS      4113 (0x1011)   0x1B            AVC                                     0.901                   145                     16,308          112             
00011.M2TS      4352 (0x1100)   0x80            LPCM            eng (English)           0.901                   5,122                   576,800         3,200           
00011.M2TS      4353 (0x1101)   0x86            DTS-HD MA       eng (English)           0.901                   1,736                   195,520         1,222           

[/code]
<---- END FORUMS PASTE ---->

QUICK SUMMARY:

Disc Title: CURÆTION-25: From There To Here | From Here To There
Disc Label: EVB335799_DISC1
Disc Size: 43,248,275,557 bytes
Protection: AACS
Playlist: 00000.MPLS
Size: 42,694,883,328 bytes
Length: 2:24:13.945
Total Bitrate: 39.47 Mbps
Video: MPEG-4 AVC Video / 29977 kbps / 1080i / 29.970 fps / 16:9 / High Profile 4.1
Audio: English / LPCM Audio / 2.0 / 48 kHz /  2304 kbps / 24-bit
Audio: English / DTS-HD Master Audio / 5.1 / 48 kHz /  5197 kbps / 24-bit (DTS Core: 5.1 / 48 kHz /  1509 kbps / 24-bit)


********************
PLAYLIST: 00002.MPLS
********************

<--- BEGIN FORUMS PASTE --->
[code]
                                                                                                                Total   Video                                             
Title                                                           Codec   Length  Movie Size      Disc Size       Bitrate Bitrate Main Audio Track                          Secondary Audio Track
-----                                                           ------  ------- --------------  --------------  ------- ------- ------------------                        ---------------------
00002.MPLS                                                      AVC     1:16:58 22,536,732,672  43,248,275,557  39.03   29.55   LPCM 2.0 2304Kbps (48kHz/24-bit)          DTS-HD Master 5.1 5213Kbps (48kHz/24-bit)
[/code]

[code]

DISC INFO:

Disc Title:     CURÆTION-25: From There To Here | From Here To There
Disc Label:     EVB335799_DISC1
Disc Size:      43,248,275,557 bytes
Protection:     AACS
BDInfo:         0.7.5.5

PLAYLIST REPORT:

Name:                   00002.MPLS
Length:                 1:16:58.981 (h:m:s.ms)
Size:                   22,536,732,672 bytes
Total Bitrate:          39.03 Mbps

VIDEO:

Codec                   Bitrate             Description     
-----                   -------             -----------     
MPEG-4 AVC Video        29548 kbps          1080i / 29.970 fps / 16:9 / High Profile 4.1

AUDIO:

Codec                           Language        Bitrate         Description     
-----                           --------        -------         -----------     
LPCM Audio                      English         2304 kbps       2.0 / 48 kHz /  2304 kbps / 24-bit
DTS-HD Master Audio             English         5213 kbps       5.1 / 48 kHz /  5213 kbps / 24-bit (DTS Core: 5.1 / 48 kHz /  1509 kbps / 24-bit)

FILES:

Name            Time In         Length          Size            Total Bitrate   
----            -------         ------          ----            -------------   
00002.M2TS      0:00:00.000     0:00:01.000     1,081,344       8,642           
00001.M2TS      0:00:01.000     1:16:56.979     22,534,766,592  39,047          
00011.M2TS      1:16:57.980     0:00:01.000     884,736         7,071           

CHAPTERS:

Number          Time In         Length          Avg Video Rate  Max 1-Sec Rate  Max 1-Sec Time  Max 5-Sec Rate  Max 5-Sec Time  Max 10Sec Rate  Max 10Sec Time  Avg Frame Size  Max Frame Size  Max Frame Time  
------          -------         ------          --------------  --------------  --------------  --------------  --------------  --------------  --------------  --------------  --------------  --------------  
1               0:00:00.000     0:03:55.034     26,235 kbps     40,611 kbps     00:02:26.412    37,968 kbps     00:00:48.248    37,170 kbps     00:03:07.687    109,407 bytes   283,749 bytes   00:00:59.225    
2               0:03:55.034     0:04:40.013     31,833 kbps     43,254 kbps     00:06:18.478    38,549 kbps     00:04:43.449    37,941 kbps     00:08:12.758    132,771 bytes   370,353 bytes   00:04:46.519    
3               0:08:35.047     0:04:35.008     33,004 kbps     40,997 kbps     00:12:31.750    37,957 kbps     00:12:46.499    37,804 kbps     00:12:42.361    137,654 bytes   327,467 bytes   00:11:57.416    
4               0:13:10.055     0:05:42.942     33,214 kbps     43,232 kbps     00:13:35.381    38,703 kbps     00:13:31.377    37,992 kbps     00:13:26.305    138,530 bytes   348,764 bytes   00:14:35.874    
5               0:18:52.998     0:05:24.057     28,628 kbps     45,267 kbps     00:19:25.264    39,172 kbps     00:19:21.260    37,734 kbps     00:19:21.793    119,404 bytes   336,813 bytes   00:19:25.998    
6               0:24:17.055     0:07:42.929     28,824 kbps     45,155 kbps     00:27:41.693    39,229 kbps     00:27:37.689    37,756 kbps     00:24:26.198    120,220 bytes   381,297 bytes   00:28:22.434    
7               0:31:59.984     0:08:03.015     22,243 kbps     39,487 kbps     00:37:12.663    35,334 kbps     00:37:12.463    33,685 kbps     00:37:11.395    92,770 bytes    260,732 bytes   00:36:18.075    
8               0:40:03.000     0:05:00.033     30,529 kbps     41,782 kbps     00:42:36.453    38,097 kbps     00:44:21.492    37,905 kbps     00:44:16.687    127,333 bytes   342,755 bytes   00:44:44.615    
9               0:45:03.033     0:05:08.975     25,718 kbps     39,344 kbps     00:49:51.021    37,955 kbps     00:45:16.180    37,551 kbps     00:47:51.168    107,264 bytes   294,237 bytes   00:45:13.710    
10              0:50:12.008     0:04:44.017     32,006 kbps     42,123 kbps     00:53:04.681    38,084 kbps     00:50:12.409    37,818 kbps     00:51:44.401    133,491 bytes   368,428 bytes   00:54:09.446    
11              0:54:56.026     0:06:45.004     32,684 kbps     47,362 kbps     00:56:31.087    39,658 kbps     00:56:27.016    38,498 kbps     00:56:22.078    136,321 bytes   484,807 bytes   01:01:13.803    
12              1:01:41.030     0:04:05.878     33,539 kbps     40,358 kbps     01:03:20.530    38,296 kbps     01:05:33.529    37,954 kbps     01:05:28.524    139,884 bytes   338,499 bytes   01:03:34.110    
13              1:05:46.909     0:06:32.091     31,724 kbps     41,949 kbps     01:07:03.719    38,607 kbps     01:06:59.648    37,875 kbps     01:09:24.360    132,316 bytes   399,144 bytes   01:10:14.443    
14              1:12:19.001     0:04:38.978     26,715 kbps     41,173 kbps     01:15:00.095    38,243 kbps     01:15:06.802    37,966 kbps     01:15:01.763    111,425 bytes   373,317 bytes   01:16:03.125    
15              1:16:57.980     0:00:01.001     111 kbps        0 kbps          00:00:00.000    0 kbps          00:00:00.000    0 kbps          00:00:00.000    478 bytes       2,441 bytes     01:16:58.580    

STREAM DIAGNOSTICS:

File            PID             Type            Codec           Language                Seconds                 Bitrate                 Bytes           Packets         
----            ---             ----            -----           --------                --------------          --------------          -------------   -----           
00002.M2TS      4113 (0x1011)   0x1B            AVC                                     0.868                   4,592                   497,949         2,714           
00002.M2TS      4352 (0x1100)   0x80            LPCM            eng (English)           0.868                   2,676                   290,244         1,608           
00002.M2TS      4353 (0x1101)   0x86            DTS-HD MA       eng (English)           0.868                   1,803                   195,520         1,222           
00001.M2TS      4113 (0x1011)   0x1B            AVC                                     4616.879                29,561                  17,059,830,897  92,797,499      
00001.M2TS      4352 (0x1100)   0x80            LPCM            eng (English)           4616.879                2,310                   1,333,383,824   7,387,168       
00001.M2TS      4353 (0x1101)   0x86            DTS-HD MA       eng (English)           4616.879                5,215                   3,009,648,528   17,029,250      
00011.M2TS      4113 (0x1011)   0x1B            AVC                                     0.901                   145                     16,308          112             
00011.M2TS      4352 (0x1100)   0x80            LPCM            eng (English)           0.901                   5,122                   576,800         3,200           
00011.M2TS      4353 (0x1101)   0x86            DTS-HD MA       eng (English)           0.901                   1,736                   195,520         1,222           

[/code]
<---- END FORUMS PASTE ---->

QUICK SUMMARY:

Disc Title: CURÆTION-25: From There To Here | From Here To There
Disc Label: EVB335799_DISC1
Disc Size: 43,248,275,557 bytes
Protection: AACS
Playlist: 00002.MPLS
Size: 22,536,732,672 bytes
Length: 1:16:58.981
Total Bitrate: 39.03 Mbps
Video: MPEG-4 AVC Video / 29548 kbps / 1080i / 29.970 fps / 16:9 / High Profile 4.1
Audio: English / LPCM Audio / 2.0 / 48 kHz /  2304 kbps / 24-bit
Audio: English / DTS-HD Master Audio / 5.1 / 48 kHz /  5213 kbps / 24-bit (DTS Core: 5.1 / 48 kHz /  1509 kbps / 24-bit)


********************
PLAYLIST: 00001.MPLS
********************

<--- BEGIN FORUMS PASTE --->
[code]
                                                                                                                Total   Video                                             
Title                                                           Codec   Length  Movie Size      Disc Size       Bitrate Bitrate Main Audio Track                          Secondary Audio Track
-----                                                           ------  ------- --------------  --------------  ------- ------- ------------------                        ---------------------
00001.MPLS                                                      AVC     1:07:16 20,160,116,736  43,248,275,557  39.95   30.45   LPCM 2.0 2304Kbps (48kHz/24-bit)          DTS-HD Master 5.1 5176Kbps (48kHz/24-bit)
[/code]

[code]

DISC INFO:

Disc Title:     CURÆTION-25: From There To Here | From Here To There
Disc Label:     EVB335799_DISC1
Disc Size:      43,248,275,557 bytes
Protection:     AACS
BDInfo:         0.7.5.5

PLAYLIST REPORT:

Name:                   00001.MPLS
Length:                 1:07:16.966 (h:m:s.ms)
Size:                   20,160,116,736 bytes
Total Bitrate:          39.95 Mbps

VIDEO:

Codec                   Bitrate             Description     
-----                   -------             -----------     
MPEG-4 AVC Video        30453 kbps          1080i / 29.970 fps / 16:9 / High Profile 4.1

AUDIO:

Codec                           Language        Bitrate         Description     
-----                           --------        -------         -----------     
LPCM Audio                      English         2304 kbps       2.0 / 48 kHz /  2304 kbps / 24-bit
DTS-HD Master Audio             English         5176 kbps       5.1 / 48 kHz /  5176 kbps / 24-bit (DTS Core: 5.1 / 48 kHz /  1509 kbps / 24-bit)

FILES:

Name            Time In         Length          Size            Total Bitrate   
----            -------         ------          ----            -------------   
00002.M2TS      0:00:00.000     0:00:01.000     1,081,344       8,642           
00000.M2TS      0:00:01.000     1:07:14.964     20,158,150,656  39,967          
00011.M2TS      1:07:15.965     0:00:01.000     884,736         7,071           

CHAPTERS:

Number          Time In         Length          Avg Video Rate  Max 1-Sec Rate  Max 1-Sec Time  Max 5-Sec Rate  Max 5-Sec Time  Max 10Sec Rate  Max 10Sec Time  Avg Frame Size  Max Frame Size  Max Frame Time  
------          -------         ------          --------------  --------------  --------------  --------------  --------------  --------------  --------------  --------------  --------------  --------------  
1               0:00:00.000     0:03:55.034     29,699 kbps     39,463 kbps     00:00:53.853    37,931 kbps     00:00:39.539    37,816 kbps     00:00:34.534    123,850 bytes   391,317 bytes   00:00:54.487    
2               0:03:55.034     0:05:58.958     20,554 kbps     39,566 kbps     00:09:47.987    37,423 kbps     00:09:47.787    30,780 kbps     00:09:43.983    85,728 bytes    276,511 bytes   00:09:49.689    
3               0:09:53.993     0:04:37.010     34,722 kbps     45,298 kbps     00:14:11.817    38,576 kbps     00:09:58.264    38,022 kbps     00:11:31.457    144,818 bytes   344,197 bytes   00:10:02.935    
4               0:14:31.003     0:04:33.940     34,797 kbps     40,306 kbps     00:15:08.374    38,290 kbps     00:17:06.492    37,979 kbps     00:17:02.454    145,132 bytes   323,026 bytes   00:14:41.714    
5               0:19:04.943     0:03:08.054     34,658 kbps     42,783 kbps     00:19:32.437    38,544 kbps     00:19:28.333    37,744 kbps     00:20:15.047    144,551 bytes   349,417 bytes   00:19:33.071    
6               0:22:12.998     0:04:16.990     34,234 kbps     41,016 kbps     00:22:26.111    38,170 kbps     00:24:26.598    37,998 kbps     00:26:13.571    142,785 bytes   355,062 bytes   00:22:28.213    
7               0:26:29.988     0:03:40.019     32,201 kbps     40,289 kbps     00:29:33.738    38,176 kbps     00:28:24.369    37,960 kbps     00:28:19.364    134,304 bytes   335,963 bytes   00:29:49.587    
8               0:30:10.008     0:07:14.967     27,515 kbps     44,200 kbps     00:36:58.583    37,828 kbps     00:32:53.738    37,685 kbps     00:32:02.053    114,759 bytes   396,443 bytes   00:36:59.250    
9               0:37:24.976     0:03:42.021     28,761 kbps     38,939 kbps     00:37:38.222    37,937 kbps     00:38:22.133    37,290 kbps     00:38:03.180    119,956 bytes   313,951 bytes   00:37:38.990    
10              0:41:06.997     0:04:11.184     28,485 kbps     38,666 kbps     00:42:54.571    38,012 kbps     00:44:42.212    37,867 kbps     00:44:42.212    118,805 bytes   299,513 bytes   00:43:24.468    
11              0:45:18.182     0:07:22.842     29,225 kbps     39,582 kbps     00:51:29.786    38,032 kbps     00:51:43.533    37,857 kbps     00:51:38.528    121,894 bytes   343,447 bytes   00:49:12.983    
12              0:52:41.024     0:04:15.989     27,591 kbps     45,910 kbps     00:54:20.223    37,836 kbps     00:55:59.189    36,746 kbps     00:56:27.050    115,077 bytes   579,450 bytes   00:54:47.484    
13              0:56:57.013     0:04:35.008     34,095 kbps     43,735 kbps     00:57:24.908    38,903 kbps     00:58:45.588    37,955 kbps     00:57:23.173    142,203 bytes   634,119 bytes   00:59:45.882    
14              1:01:32.021     0:05:43.943     35,294 kbps     42,701 kbps     01:01:57.180    38,805 kbps     01:05:53.416    38,201 kbps     01:05:48.444    147,203 bytes   319,936 bytes   01:01:57.613    
15              1:07:15.965     0:00:01.001     111 kbps        0 kbps          00:00:00.000    0 kbps          00:00:00.000    0 kbps          00:00:00.000    478 bytes       2,441 bytes     01:07:16.565    

STREAM DIAGNOSTICS:

File            PID             Type            Codec           Language                Seconds                 Bitrate                 Bytes           Packets         
----            ---             ----            -----           --------                --------------          --------------          -------------   -----           
00002.M2TS      4113 (0x1011)   0x1B            AVC                                     0.868                   4,592                   497,949         2,714           
00002.M2TS      4352 (0x1100)   0x80            LPCM            eng (English)           0.868                   2,676                   290,244         1,608           
00002.M2TS      4353 (0x1101)   0x86            DTS-HD MA       eng (English)           0.868                   1,803                   195,520         1,222           
00000.M2TS      4113 (0x1011)   0x1B            AVC                                     4034.831                30,468                  15,366,720,303  83,585,645      
00000.M2TS      4352 (0x1100)   0x80            LPCM            eng (English)           4034.831                2,310                   1,165,297,892   6,455,944       
00000.M2TS      4353 (0x1101)   0x86            DTS-HD MA       eng (English)           4034.831                5,178                   2,611,603,856   14,813,600      
00011.M2TS      4113 (0x1011)   0x1B            AVC                                     0.901                   145                     16,308          112             
00011.M2TS      4352 (0x1100)   0x80            LPCM            eng (English)           0.901                   5,122                   576,800         3,200           
00011.M2TS      4353 (0x1101)   0x86            DTS-HD MA       eng (English)           0.901                   1,736                   195,520         1,222           

[/code]
<---- END FORUMS PASTE ---->

QUICK SUMMARY:

Disc Title: CURÆTION-25: From There To Here | From Here To There
Disc Label: EVB335799_DISC1
Disc Size: 43,248,275,557 bytes
Protection: AACS
Playlist: 00001.MPLS
Size: 20,160,116,736 bytes
Length: 1:07:16.966
Total Bitrate: 39.95 Mbps
Video: MPEG-4 AVC Video / 30453 kbps / 1080i / 29.970 fps / 16:9 / High Profile 4.1
Audio: English / LPCM Audio / 2.0 / 48 kHz /  2304 kbps / 24-bit
Audio: English / DTS-HD Master Audio / 5.1 / 48 kHz /  5176 kbps / 24-bit (DTS Core: 5.1 / 48 kHz /  1509 kbps / 24-bit)


********************
PLAYLIST: 00200.MPLS
********************

<--- BEGIN FORUMS PASTE --->
[code]
                                                                                                                Total   Video                                             
Title                                                           Codec   Length  Movie Size      Disc Size       Bitrate Bitrate Main Audio Track                          Secondary Audio Track
-----                                                           ------  ------- --------------  --------------  ------- ------- ------------------                        ---------------------
00200.MPLS                                                      AVC     0:00:20 45,637,632      43,248,275,557  18.21   15.01   LPCM 2.0 2304Kbps (48kHz/24-bit)          
[/code]

[code]

DISC INFO:

Disc Title:     CURÆTION-25: From There To Here | From Here To There
Disc Label:     EVB335799_DISC1
Disc Size:      43,248,275,557 bytes
Protection:     AACS
BDInfo:         0.7.5.5

PLAYLIST REPORT:

Name:                   00200.MPLS
Length:                 0:00:20.053 (h:m:s.ms)
Size:                   45,637,632 bytes
Total Bitrate:          18.21 Mbps

VIDEO:

Codec                   Bitrate             Description     
-----                   -------             -----------     
MPEG-4 AVC Video        15013 kbps          1080i / 29.970 fps / 16:9 / High Profile 4.1

AUDIO:

Codec                           Language        Bitrate         Description     
-----                           --------        -------         -----------     
LPCM Audio                      English         2304 kbps       2.0 / 48 kHz /  2304 kbps / 24-bit

FILES:

Name            Time In         Length          Size            Total Bitrate   
----            -------         ------          ----            -------------   
00005.M2TS      0:00:00.000     0:00:20.053     45,637,632      18,206          

CHAPTERS:

Number          Time In         Length          Avg Video Rate  Max 1-Sec Rate  Max 1-Sec Time  Max 5-Sec Rate  Max 5-Sec Time  Max 10Sec Rate  Max 10Sec Time  Avg Frame Size  Max Frame Size  Max Frame Time  
------          -------         ------          --------------  --------------  --------------  --------------  --------------  --------------  --------------  --------------  --------------  --------------  
1               0:00:00.000     0:00:20.053     15,013 kbps     47,376 kbps     00:00:06.106    31,296 kbps     00:00:04.771    25,846 kbps     00:00:04.704    62,619 bytes    360,393 bytes   00:00:11.010    

STREAM DIAGNOSTICS:

File            PID             Type            Codec           Language                Seconds                 Bitrate                 Bytes           Packets         
----            ---             ----            -----           --------                --------------          --------------          -------------   -----           
00005.M2TS      4113 (0x1011)   0x1B            AVC                                     19.953                  15,089                  37,633,838      204,915         
00005.M2TS      4352 (0x1100)   0x80            LPCM            eng (English)           19.953                  2,322                   5,791,884       32,088          

[/code]
<---- END FORUMS PASTE ---->

QUICK SUMMARY:

Disc Title: CURÆTION-25: From There To Here | From Here To There
Disc Label: EVB335799_DISC1
Disc Size: 43,248,275,557 bytes
Protection: AACS
Playlist: 00200.MPLS
Size: 45,637,632 bytes
Length: 0:00:20.053
Total Bitrate: 18.21 Mbps
Video: MPEG-4 AVC Video / 15013 kbps / 1080i / 29.970 fps / 16:9 / High Profile 4.1
Audio: English / LPCM Audio / 2.0 / 48 kHz /  2304 kbps / 24-bit

--------------------------------------------------------------------------------------------------------------------------------------------------------------------------------------------------------------------

Disc Title:     ANNIVERSARY: 1978-2018 Live In Hyde Park London
Disc Label:     EVB335799_DISC2
Disc Size:      46,793,313,685 bytes
Protection:     AACS
BDInfo:         0.7.5.5

Notes:          

BDINFO HOME:
  Cinema Squid (old)
    http://www.cinemasquid.com/blu-ray/tools/bdinfo
  UniqProject GitHub (new)
   https://github.com/UniqProject/BDInfo

INCLUDES FORUMS REPORT FOR:
  AVS Forum Blu-ray Audio and Video Specifications Thread
    http://www.avsforum.com/avs-vb/showthread.php?t=1155731


********************
PLAYLIST: 00000.MPLS
********************

<--- BEGIN FORUMS PASTE --->
[code]
                                                                                                                Total   Video                                             
Title                                                           Codec   Length  Movie Size      Disc Size       Bitrate Bitrate Main Audio Track                          Secondary Audio Track
-----                                                           ------  ------- --------------  --------------  ------- ------- ------------------                        ---------------------
00000.MPLS                                                      AVC     2:15:22 46,395,598,848  46,793,313,685  45.70   35.99   LPCM 2.0 2304Kbps (48kHz/24-bit)          DTS-HD Master 5.1 5152Kbps (48kHz/24-bit)
[/code]

[code]

DISC INFO:

Disc Title:     ANNIVERSARY: 1978-2018 Live In Hyde Park London
Disc Label:     EVB335799_DISC2
Disc Size:      46,793,313,685 bytes
Protection:     AACS
BDInfo:         0.7.5.5

PLAYLIST REPORT:

Name:                   00000.MPLS
Length:                 2:15:22.414 (h:m:s.ms)
Size:                   46,395,598,848 bytes
Total Bitrate:          45.70 Mbps

VIDEO:

Codec                   Bitrate             Description     
-----                   -------             -----------     
MPEG-4 AVC Video        35986 kbps          1080i / 29.970 fps / 16:9 / High Profile 4.1

AUDIO:

Codec                           Language        Bitrate         Description     
-----                           --------        -------         -----------     
LPCM Audio                      English         2304 kbps       2.0 / 48 kHz /  2304 kbps / 24-bit
DTS-HD Master Audio             English         5152 kbps       5.1 / 48 kHz /  5152 kbps / 24-bit (DTS Core: 5.1 / 48 kHz /  1509 kbps / 24-bit)

FILES:

Name            Time In         Length          Size            Total Bitrate   
----            -------         ------          ----            -------------   
00000.M2TS      0:00:00.000     2:15:21.413     46,394,714,112  45,701          
00011.M2TS      2:15:21.413     0:00:01.000     884,736         7,071           

CHAPTERS:

Number          Time In         Length          Avg Video Rate  Max 1-Sec Rate  Max 1-Sec Time  Max 5-Sec Rate  Max 5-Sec Time  Max 10Sec Rate  Max 10Sec Time  Avg Frame Size  Max Frame Size  Max Frame Time  
------          -------         ------          --------------  --------------  --------------  --------------  --------------  --------------  --------------  --------------  --------------  --------------  
1               0:00:00.000     0:05:27.727     34,320 kbps     40,350 kbps     00:01:42.001    38,248 kbps     00:04:30.436    37,963 kbps     00:05:05.471    143,130 bytes   530,648 bytes   00:03:34.814    
2               0:05:27.727     0:07:20.039     36,006 kbps     40,783 kbps     00:08:28.908    38,249 kbps     00:12:22.074    38,047 kbps     00:12:17.069    150,176 bytes   494,129 bytes   00:06:18.845    
3               0:12:47.766     0:03:37.217     37,242 kbps     40,152 kbps     00:13:47.560    38,191 kbps     00:16:08.434    37,928 kbps     00:16:10.469    155,328 bytes   465,129 bytes   00:16:13.372    
4               0:16:24.984     0:04:29.268     36,959 kbps     41,495 kbps     00:19:31.403    38,507 kbps     00:19:27.399    38,016 kbps     00:16:42.267    154,149 bytes   499,580 bytes   00:16:52.177    
5               0:20:54.252     0:03:28.208     36,785 kbps     44,694 kbps     00:22:48.233    38,931 kbps     00:22:53.739    38,321 kbps     00:22:48.700    153,425 bytes   483,033 bytes   00:22:49.101    
6               0:24:22.461     0:03:35.215     37,233 kbps     40,052 kbps     00:27:14.399    38,260 kbps     00:25:31.229    37,929 kbps     00:27:05.323    155,292 bytes   431,775 bytes   00:27:56.074    
7               0:27:57.676     0:03:39.219     37,197 kbps     39,989 kbps     00:28:09.554    38,165 kbps     00:28:53.631    37,943 kbps     00:30:10.875    155,142 bytes   428,741 bytes   00:30:13.778    
8               0:31:36.895     0:04:37.210     37,297 kbps     40,246 kbps     00:36:05.496    38,226 kbps     00:32:40.959    38,009 kbps     00:32:35.920    155,561 bytes   465,232 bytes   00:36:11.569    
9               0:36:14.105     0:02:54.240     37,477 kbps     40,498 kbps     00:37:40.891    38,236 kbps     00:37:10.394    37,918 kbps     00:37:31.949    156,310 bytes   448,085 bytes   00:36:19.010    
10              0:39:08.345     0:04:02.242     37,295 kbps     40,322 kbps     00:39:58.529    38,271 kbps     00:39:57.595    38,033 kbps     00:39:52.590    155,553 bytes   478,519 bytes   00:40:47.011    
11              0:43:10.587     0:05:13.313     34,911 kbps     39,720 kbps     00:43:21.732    38,102 kbps     00:43:21.599    37,944 kbps     00:43:25.836    145,610 bytes   394,198 bytes   00:43:36.513    
12              0:48:23.901     0:04:05.545     37,537 kbps     40,757 kbps     00:51:11.635    38,325 kbps     00:50:35.432    38,005 kbps     00:49:31.802    156,559 bytes   499,205 bytes   00:50:40.404    
13              0:52:29.446     0:06:45.104     37,085 kbps     40,472 kbps     00:57:31.514    38,355 kbps     00:54:31.801    37,985 kbps     00:54:26.863    154,675 bytes   443,926 bytes   00:52:37.154    
14              0:59:14.551     0:04:40.279     35,251 kbps     41,014 kbps     01:00:32.595    38,311 kbps     01:00:28.591    37,993 kbps     01:00:23.720    147,025 bytes   429,536 bytes   00:59:36.906    
15              1:03:54.831     0:06:24.851     36,382 kbps     41,584 kbps     01:07:55.237    38,343 kbps     01:07:51.233    37,911 kbps     01:07:17.266    151,743 bytes   384,285 bytes   01:09:26.896    
16              1:10:19.682     0:04:59.832     35,625 kbps     41,125 kbps     01:13:14.289    38,243 kbps     01:14:41.710    37,992 kbps     01:14:48.750    148,588 bytes   397,019 bytes   01:10:50.379    
17              1:15:19.514     0:03:03.850     36,479 kbps     41,077 kbps     01:16:33.789    38,380 kbps     01:15:41.069    37,942 kbps     01:16:09.631    152,147 bytes   414,260 bytes   01:18:17.692    
18              1:18:23.365     0:07:50.803     36,466 kbps     44,267 kbps     01:20:37.399    38,898 kbps     01:20:33.395    38,222 kbps     01:20:28.390    152,093 bytes   424,881 bytes   01:20:38.333    
19              1:26:14.169     0:09:25.565     36,186 kbps     41,498 kbps     01:31:29.183    38,158 kbps     01:27:42.790    37,956 kbps     01:29:20.188    150,924 bytes   413,743 bytes   01:31:42.363    
20              1:35:39.734     0:04:54.293     37,549 kbps     40,485 kbps     01:37:32.479    38,231 kbps     01:37:28.676    37,977 kbps     01:37:23.671    156,612 bytes   429,289 bytes   01:40:15.776    
21              1:40:34.028     0:04:09.415     35,832 kbps     41,197 kbps     01:42:50.397    38,259 kbps     01:41:40.994    37,889 kbps     01:40:34.628    149,451 bytes   361,268 bytes   01:43:48.655    
22              1:44:43.443     0:03:46.059     37,153 kbps     41,646 kbps     01:47:35.515    38,257 kbps     01:46:31.151    37,956 kbps     01:45:22.949    154,957 bytes   395,757 bytes   01:48:24.831    
23              1:48:29.503     0:03:33.212     34,653 kbps     40,467 kbps     01:50:49.676    38,196 kbps     01:50:18.244    37,799 kbps     01:49:27.661    144,533 bytes   367,378 bytes   01:49:28.695    
24              1:52:02.716     0:03:15.795     36,791 kbps     40,415 kbps     01:53:07.514    38,252 kbps     01:53:12.152    37,887 kbps     01:54:51.985    153,449 bytes   363,306 bytes   01:53:28.468    
25              1:55:18.511     0:01:15.475     35,933 kbps     41,024 kbps     01:55:18.912    38,190 kbps     01:55:21.080    37,862 kbps     01:55:18.912    149,871 bytes   415,479 bytes   01:55:19.779    
26              1:56:33.986     0:02:54.174     36,188 kbps     43,045 kbps     01:56:51.404    38,682 kbps     01:56:47.433    38,141 kbps     01:56:42.428    150,936 bytes   389,285 bytes   01:56:42.562    
27              1:59:28.161     0:03:17.096     37,646 kbps     43,234 kbps     02:01:02.188    38,592 kbps     02:00:58.184    38,143 kbps     02:00:53.179    157,015 bytes   347,615 bytes   02:01:02.855    
28              2:02:45.257     0:02:53.606     37,388 kbps     43,629 kbps     02:02:46.125    38,811 kbps     02:05:33.859    38,298 kbps     02:05:28.854    155,939 bytes   393,468 bytes   02:03:09.648    
29              2:05:38.864     0:03:42.989     36,277 kbps     46,139 kbps     02:07:57.903    39,042 kbps     02:07:01.213    38,294 kbps     02:06:56.208    151,306 bytes   384,585 bytes   02:07:58.671    
30              2:09:21.854     0:05:59.559     26,007 kbps     42,058 kbps     02:10:24.383    38,446 kbps     02:10:20.279    38,025 kbps     02:11:37.623    108,470 bytes   381,192 bytes   02:09:23.722    
31              2:15:21.413     0:00:01.001     111 kbps        0 kbps          00:00:00.000    0 kbps          00:00:00.000    0 kbps          00:00:00.000    478 bytes       2,441 bytes     02:15:22.013    

STREAM DIAGNOSTICS:

File            PID             Type            Codec           Language                Seconds                 Bitrate                 Bytes           Packets         
----            ---             ----            -----           --------                --------------          --------------          -------------   -----           
00000.M2TS      4113 (0x1011)   0x1B            AVC                                     8121.280                35,991                  36,536,249,561  198,709,047     
00000.M2TS      4352 (0x1100)   0x80            LPCM            eng (English)           8121.280                2,310                   2,345,175,852   12,992,664      
00000.M2TS      4353 (0x1101)   0x86            DTS-HD MA       eng (English)           8121.280                5,153                   5,231,045,188   29,665,342      
00011.M2TS      4113 (0x1011)   0x1B            AVC                                     0.901                   145                     16,308          112             
00011.M2TS      4352 (0x1100)   0x80            LPCM            eng (English)           0.901                   5,122                   576,800         3,200           
00011.M2TS      4353 (0x1101)   0x86            DTS-HD MA       eng (English)           0.901                   1,736                   195,520         1,222           

[/code]
<---- END FORUMS PASTE ---->

QUICK SUMMARY:

Disc Title: ANNIVERSARY: 1978-2018 Live In Hyde Park London
Disc Label: EVB335799_DISC2
Disc Size: 46,793,313,685 bytes
Protection: AACS
Playlist: 00000.MPLS
Size: 46,395,598,848 bytes
Length: 2:15:22.414
Total Bitrate: 45.70 Mbps
Video: MPEG-4 AVC Video / 35986 kbps / 1080i / 29.970 fps / 16:9 / High Profile 4.1
Audio: English / LPCM Audio / 2.0 / 48 kHz /  2304 kbps / 24-bit
Audio: English / DTS-HD Master Audio / 5.1 / 48 kHz /  5152 kbps / 24-bit (DTS Core: 5.1 / 48 kHz /  1509 kbps / 24-bit)


********************
PLAYLIST: 00200.MPLS
********************

<--- BEGIN FORUMS PASTE --->
[code]
                                                                                                                Total   Video                                             
Title                                                           Codec   Length  Movie Size      Disc Size       Bitrate Bitrate Main Audio Track                          Secondary Audio Track
-----                                                           ------  ------- --------------  --------------  ------- ------- ------------------                        ---------------------
00200.MPLS                                                      AVC     0:00:20 45,637,632      46,793,313,685  18.21   15.01   LPCM 2.0 2304Kbps (48kHz/24-bit)          
[/code]

[code]

DISC INFO:

Disc Title:     ANNIVERSARY: 1978-2018 Live In Hyde Park London
Disc Label:     EVB335799_DISC2
Disc Size:      46,793,313,685 bytes
Protection:     AACS
BDInfo:         0.7.5.5

PLAYLIST REPORT:

Name:                   00200.MPLS
Length:                 0:00:20.053 (h:m:s.ms)
Size:                   45,637,632 bytes
Total Bitrate:          18.21 Mbps

VIDEO:

Codec                   Bitrate             Description     
-----                   -------             -----------     
MPEG-4 AVC Video        15013 kbps          1080i / 29.970 fps / 16:9 / High Profile 4.1

AUDIO:

Codec                           Language        Bitrate         Description     
-----                           --------        -------         -----------     
LPCM Audio                      English         2304 kbps       2.0 / 48 kHz /  2304 kbps / 24-bit

FILES:

Name            Time In         Length          Size            Total Bitrate   
----            -------         ------          ----            -------------   
00005.M2TS      0:00:00.000     0:00:20.053     45,637,632      18,206          

CHAPTERS:

Number          Time In         Length          Avg Video Rate  Max 1-Sec Rate  Max 1-Sec Time  Max 5-Sec Rate  Max 5-Sec Time  Max 10Sec Rate  Max 10Sec Time  Avg Frame Size  Max Frame Size  Max Frame Time  
------          -------         ------          --------------  --------------  --------------  --------------  --------------  --------------  --------------  --------------  --------------  --------------  
1               0:00:00.000     0:00:20.053     15,013 kbps     47,376 kbps     00:00:06.106    31,296 kbps     00:00:04.771    25,846 kbps     00:00:04.704    62,619 bytes    360,393 bytes   00:00:11.010    

STREAM DIAGNOSTICS:

File            PID             Type            Codec           Language                Seconds                 Bitrate                 Bytes           Packets         
----            ---             ----            -----           --------                --------------          --------------          -------------   -----           
00005.M2TS      4113 (0x1011)   0x1B            AVC                                     19.953                  15,089                  37,633,838      204,915         
00005.M2TS      4352 (0x1100)   0x80            LPCM            eng (English)           19.953                  2,322                   5,791,884       32,088          

[/code]
<---- END FORUMS PASTE ---->

QUICK SUMMARY:

Disc Title: ANNIVERSARY: 1978-2018 Live In Hyde Park London
Disc Label: EVB335799_DISC2
Disc Size: 46,793,313,685 bytes
Protection: AACS
Playlist: 00200.MPLS
Size: 45,637,632 bytes
Length: 0:00:20.053
Total Bitrate: 18.21 Mbps
Video: MPEG-4 AVC Video / 15013 kbps / 1080i / 29.970 fps / 16:9 / High Profile 4.1
Audio: English / LPCM Audio / 2.0 / 48 kHz /  2304 kbps / 24-bit




Create a new paste based on this one


Comments: