[ create a new paste ] login | about

Link: http://codepad.org/Y8k2Jzzz    [ raw code | fork ]

Plain Text, pasted on Mar 7:
foobar2000 1.5 / Dynamic Range Meter 1.1.1
log date: 2020-03-07 18:18:24

--------------------------------------------------------------------------------
Analyzed: Sarah Brightman / La Luna
--------------------------------------------------------------------------------

DR         Peak         RMS     Duration Track
--------------------------------------------------------------------------------
DR10      -1.06 dB   -13.74 dB      2:53 01-14]: La Luna
DR7       -0.16 dB    -8.83 dB      4:34 02-Winter In July
DR7       -0.30 dB   -10.10 dB      4:11 03-Scarborough Fair
DR8       -0.34 dB   -11.34 dB      4:37 04-Figlio Perduto
DR7       -0.32 dB    -9.12 dB      3:40 05-A Whiter Shade of Pale
DR7       -0.32 dB   -10.34 dB      4:29 06-He Doesnt See Me
DR9       -6.43 dB   -18.02 dB      1:14 07-Serenade
DR7       -0.36 dB   -10.48 dB      2:13 08-How Fair This Spot
DR7       -0.33 dB   -10.11 dB      4:28 09-Hijo De La Luna
DR7       -0.27 dB    -9.07 dB      5:24 10-Here With Me
DR7       -0.34 dB   -11.31 dB      2:47 11-La Califfa
DR7       -0.31 dB    -9.87 dB      6:12 12-This Love
DR7       -0.37 dB   -10.33 dB      3:07 13-Solo Con te
DR8       -0.32 dB   -10.79 dB      3:48 14-Gloomy Sunday
DR9       -0.37 dB   -13.27 dB      4:58 15-La Luna
--------------------------------------------------------------------------------

Number of tracks:  15
Official DR value: DR8

Samplerate:        88200 Hz
Channels:          2
Bits per sample:   24
Bitrate:           2633 kbps
Codec:             FLAC
================================================================================




Create a new paste based on this one


Comments: