[ create a new paste ] login | about

Link: http://codepad.org/Y9iIcLbk    [ raw code | fork ]

Plain Text, pasted on May 27:
Exact Audio Copy V1.0 beta 4 from 7. December 2014

EAC extraction logfile from 30. September 2015, 22:43

Deep Purple / ...To The Rising Sun. In Tokyo CD2 (2015, 2CD+DVD, 0210547EMU)

Used drive  : ATAPI   iHAS124   B   Adapter: 1  ID: 0

Read mode               : Secure
Utilize accurate stream : Yes
Defeat audio cache      : Yes
Make use of C2 pointers : No

Read offset correction                      : 6
Overread into Lead-In and Lead-Out          : No
Fill up missing offset samples with silence : Yes
Delete leading and trailing silent blocks   : No
Null samples used in CRC calculations       : Yes
Used interface                              : Installed external ASPI interface

Used output format              : User Defined Encoder
Selected bitrate                : 128 kBit/s
Quality                         : High
Add ID3 tag                     : Yes
Command line compressor         : C:\Program Files (x86)\Exact Audio Copy\Flac\flac.exe
Additional command line options : -V -8 -T "Date=%year%" -T "Genre=%genre%" %source%


TOC of the extracted CD

     Track |   Start  |  Length  | Start sector | End sector 
    ---------------------------------------------------------
        1  |  0:00.00 |  5:19.66 |         0    |    23990   
        2  |  5:19.66 |  6:15.40 |     23991    |    52155   
        3  | 11:35.31 |  6:07.33 |     52156    |    79713   
        4  | 17:42.64 |  6:00.14 |     79714    |   106727   
        5  | 23:43.03 |  7:37.03 |    106728    |   141005   
        6  | 31:20.06 |  9:56.36 |    141006    |   185741   
        7  | 41:16.42 |  7:45.18 |    185742    |   220634   


Range status and errors

Selected range

     Filename G:\CD\Deep Purple - To The Rising Sun CD2.wav

     Peak level 97.7 %
     Extraction speed 5.5 X
     Range quality 100.0 %
     Test CRC D39D7422
     Copy CRC D39D7422
     Copy OK

No errors occurred

 
AccurateRip summary
 
Track  1  not present in database
Track  2  not present in database
Track  3  not present in database
Track  4  not present in database
Track  5  not present in database
Track  6  not present in database
Track  7  not present in database
 
None of the tracks are present in the AccurateRip database

End of status report

---- CUETools DB Plugin V2.1.4

[CTDB TOCID: VwapsjYpImTPfz5p1PhnoteOKJU-] found
Submit result: already submitted
Track | CTDB Status
  1   | (10/10) Accurately ripped
  2   | (10/10) Accurately ripped
  3   | (10/10) Accurately ripped
  4   | (10/10) Accurately ripped
  5   | (10/10) Accurately ripped
  6   | (10/10) Accurately ripped
  7   | (10/10) Accurately ripped


==== Log checksum 091FE848009D8525626EFB37B882972A1D2F4E7F674A86F4C262F9D0401406AE ====



Create a new paste based on this one


Comments: