[ create a new paste ] login | about

Link: http://codepad.org/YB9JWBkz    [ raw code | fork ]

Plain Text, pasted on Sep 16:
Exact Audio Copy V0.99 prebeta 5 from 4. May 2009

Отчёт EAC об извлечении, выполненном 6. сентября 2009, 0:02

Mills Brothers / Golden Greats [disc 2]

Дисковод: PIONEER DVD-RW  DVR-217F   Adapter: 0  ID: 1

Режим чтения                 : Достоверность
Использование точного потока : Да
Отключение кэша аудио        : Да
Использование указателей C2  : Нет

Коррекция смещения при чтении                     : 96
Способность читать области Lead-in и Lead-out     : Нет
Заполнение пропущенных сэмплов тишиной            : Да
Удаление блоков с тишиной в начале и конце        : Нет
При вычислениях CRC использовались нулевые сэмплы : Да
Интерфейс                                         : Установленный внешний ASPI-интерфейс

Выходной формат          : Пользовательский кодировщик
Выбранный битрейт        : 128 kBit/s
Качество                 : Высокий
Добавление ID3-тэга      : Нет
Утилита сжатия           : C:\Program Files\FLAC\FLAC frontend.exe
Дополнительные параметры : -8 -V %s


TOC извлечённого CD

     Трек |   Старт  | Длительность | Начальный сектор | Конечный сектор 
    ---------------------------------------------------------------------
       1  |  0:00.00 |    3:25.47   |           0      |      15421      
       2  |  3:25.47 |    2:24.50   |       15422      |      26271      
       3  |  5:50.22 |    2:13.25   |       26272      |      36271      
       4  |  8:03.47 |    3:17.35   |       36272      |      51081      
       5  | 11:21.07 |    2:47.57   |       51082      |      63663      
       6  | 14:08.64 |    3:12.29   |       63664      |      78092      
       7  | 17:21.18 |    2:23.04   |       78093      |      88821      
       8  | 19:44.22 |    2:43.37   |       88822      |     101083      
       9  | 22:27.59 |    2:52.49   |      101084      |     114032      
      10  | 25:20.33 |    2:37.36   |      114033      |     125843      
      11  | 27:57.69 |    2:45.27   |      125844      |     138245      
      12  | 30:43.21 |    3:05.60   |      138246      |     152180      
      13  | 33:49.06 |    2:48.73   |      152181      |     164853      
      14  | 36:38.04 |    2:19.16   |      164854      |     175294      
      15  | 38:57.20 |    3:01.22   |      175295      |     188891      
      16  | 41:58.42 |    2:26.06   |      188892      |     199847      
      17  | 44:24.48 |    2:38.42   |      199848      |     211739      
      18  | 47:03.15 |    2:58.65   |      211740      |     225154      
      19  | 50:02.05 |    2:27.70   |      225155      |     236249      
      20  | 52:30.00 |    2:00.65   |      236250      |     245314      
      21  | 54:30.65 |    2:46.09   |      245315      |     257773      
      22  | 57:16.74 |    2:59.43   |      257774      |     271241      
      23  | 60:16.42 |    2:42.26   |      271242      |     283417      
      24  | 62:58.68 |    3:16.18   |      283418      |     298135      
      25  | 66:15.11 |    2:45.69   |      298136      |     310579      
      26  | 69:01.05 |    3:03.05   |      310580      |     324309      


Характеристики диапазона извлечения и сообщения об ошибках

Выбранный диапазон

     Имя файла C:\Torrent\The Mills Brothers - Golden Greats\CD 2\Mills Brothers - Golden Greats [disc 2].wav

     Пиковый уровень 98.9 %
     Качество диапазона 99.9 %
     CRC теста F96C4392
     CRC копии F96C4392
     Копирование... OK

Ошибок не произошло

 
AccurateRip: сводка
 
Трек  1  нет в базе данных
Трек  2  нет в базе данных
Трек  3  нет в базе данных
Трек  4  нет в базе данных
Трек  5  нет в базе данных
Трек  6  нет в базе данных
Трек  7  нет в базе данных
Трек  8  нет в базе данных
Трек  9  нет в базе данных
Трек 10  нет в базе данных
Трек 11  нет в базе данных
Трек 12  нет в базе данных
Трек 13  нет в базе данных
Трек 14  нет в базе данных
Трек 15  нет в базе данных
Трек 16  нет в базе данных
Трек 17  нет в базе данных
Трек 18  нет в базе данных
Трек 19  нет в базе данных
Трек 20  нет в базе данных
Трек 21  нет в базе данных
Трек 22  нет в базе данных
Трек 23  нет в базе данных
Трек 24  нет в базе данных
Трек 25  нет в базе данных
Трек 26  нет в базе данных
 
Ни одного трека нет в базе AccurateRip

Конец отчёта



Create a new paste based on this one


Comments: