[ create a new paste ] login | about

Link: http://codepad.org/YBEacqY6    [ raw code | fork ]

Plain Text, pasted on Aug 1:
[CUETools log; Date: 8/1/2019 11:43:56 AM; Version: 2.1.5]
CD-Extra data track length 24:41:58.
[CTDB TOCID: dt4ZHqIG3JFm0g0Cs3QHqI6ORos-] found.
Track | CTDB Status
  1   | (4924/4975) Accurately ripped, or (2/4975) differs in 286 samples @00:16:55-00:16:56, or (2/4975) differs in 24 samples @04:19:70
  2   | (4920/4975) Accurately ripped, or (6/4975) differs in 1068 samples @00:00:00-00:00:01, or (2/4975) differs in 26 samples @03:02:21
  3   | (4933/4975) Accurately ripped, or (6/4975) differs in 1069 samples @00:00:00-00:00:01, or (2/4975) differs in 32 samples @03:27:68
  4   | (4931/4975) Accurately ripped, or (6/4975) differs in 1078 samples @00:00:00-00:00:01, or (2/4975) differs in 27 samples @03:27:17
  5   | (4939/4975) Accurately ripped, or (6/4975) differs in 1094 samples @00:00:00-00:00:01, or (2/4975) differs in 30 samples @02:50:53
  6   | (4925/4975) Accurately ripped, or (6/4975) differs in 1088 samples @00:00:00-00:00:01, or (2/4975) differs in 27 samples @07:47:23
  7   | (4937/4975) Accurately ripped, or (6/4975) differs in 1075 samples @00:00:00-00:00:01, or (2/4975) differs in 27 samples @03:05:54
  8   | (4935/4975) Accurately ripped, or (6/4975) differs in 1065 samples @00:00:00-00:00:01, or (2/4975) differs in 20 samples @02:45:49
  9   | (4915/4975) Accurately ripped, or (6/4975) differs in 1076 samples @00:00:00-00:00:01, or (2/4975) differs in 19257 samples @01:16:62-01:16:63,01:23:62-01:23:63,01:25:27-01:25:28,01:25:44,01:26:34-01:26:35,01:26:51-01:26:52,01:27:25-01:27:26,01:27:42,01:28:16-01:28:17,01:28:32-01:28:33,01:28:65-01:28:66,01:29:06-01:29:08,01:29:39-01:29:40,01:29:56-01:29:57,01:29:72-01:29:73,01:30:14-01:30:15,01:30:30-01:30:31,01:30:46-01:30:48,01:30:63-01:30:64,01:31:04-01:31:06,01:31:21-01:31:22,01:31:37-01:31:38,01:31:54-01:31:55,01:31:70-01:31:71,01:32:11-01:32:13,01:32:28-01:32:29,01:32:45-01:32:46,01:32:61-01:32:62,01:33:02-01:33:04,01:33:19-01:33:20,01:33:35-01:33:36,01:33:52-01:33:53,01:33:68-01:33:69,01:34:10-01:34:11,01:34:26-01:34:27,01:34:42-01:34:44,01:34:59-01:34:60,01:35:00-01:35:04, or (2/4975) differs in 36 samples @04:02:72
 10   | (4913/4975) Accurately ripped, or (20/4975) differs in 31752 samples @01:21:27-01:21:54, or (6/4975) differs in 1164 samples @00:00:00-00:00:01, or (2/4975) differs in 40 samples @02:26:19
 11   | (4940/4975) Accurately ripped, or (6/4975) differs in 1176 samples @00:00:00-00:00:01, or (2/4975) differs in 40 samples @01:06:39
 12   | (4936/4975) Accurately ripped, or (6/4975) differs in 1176 samples @00:00:00-00:00:01, or (2/4975) differs in 40 samples @01:12:47
 13   | (4922/4975) Accurately ripped, or (6/4975) differs in 1176 samples @00:00:00-00:00:01, or (2/4975) differs in 26 samples @01:58:46
 14   | (4931/4975) Accurately ripped, or (6/4975) differs in 1079 samples @00:00:00-00:00:01, or (2/4975) differs in 40 samples @01:31:56
 15   | (4933/4975) Accurately ripped, or (6/4975) differs in 1176 samples @00:00:00-00:00:01, or (2/4975) differs in 40 samples @01:36:34
 16   | (4915/4975) Accurately ripped, or (6/4975) differs in 1175 samples @00:00:00-00:00:01, or (2/4975) differs in 29 samples @02:21:45
 17   | (4941/4975) Accurately ripped, or (6/4975) differs in 1073 samples @00:00:00-00:00:01
[AccurateRip ID: 002500d3-01cf378d-07118312] found.
Track   [  CRC   |   V2   ] Status
 01     [0f0ee2f0|39d05b38] (200+200/1014) Accurately ripped
 02     [22d42726|da54c7ff] (200+200/1017) Accurately ripped
 03     [27248154|73f3c959] (200+200/1018) Accurately ripped
 04     [4aa3966d|49aab9a9] (200+200/1015) Accurately ripped
 05     [e8198332|7e405caf] (200+200/1016) Accurately ripped
 06     [f38d0dcd|f8cfaa5d] (200+200/1015) Accurately ripped
 07     [5c918835|981bdeb5] (200+200/1020) Accurately ripped
 08     [4d54063d|bc2ac0b7] (200+200/1025) Accurately ripped
 09     [06a09f92|d8638253] (200+200/1018) Accurately ripped
 10     [f2005bc9|48b0919e] (200+200/1015) Accurately ripped
 11     [dea8274e|292d6375] (200+200/1019) Accurately ripped
 12     [c6e4e7ff|071bab3d] (200+200/1021) Accurately ripped
 13     [5c6b3924|78c4c2f1] (200+200/1021) Accurately ripped
 14     [6700f233|b1ddc03a] (200+200/1022) Accurately ripped
 15     [44ee5fd4|f1575244] (200+200/1020) Accurately ripped
 16     [136fadd5|6cbb254e] (200+200/1017) Accurately ripped
 17     [1ecb2c3c|ff0914c8] (200+200/1021) Accurately ripped
Offsetted by -862:
 01     [1eab0d50] (003/1014) Accurately ripped
 02     [7f301e08] (004/1017) Accurately ripped
 03     [3e6834fc] (003/1018) Accurately ripped
 04     [692bbd1b] (003/1015) Accurately ripped
 05     [23d48ba0] (003/1016) Accurately ripped
 06     [9f827cbc] (003/1015) Accurately ripped
 07     [024b9178] (003/1020) Accurately ripped
 08     [8f41b9fe] (003/1025) Accurately ripped
 09     [0e3fe024] (003/1018) Accurately ripped
 10     [0046d4ad] (003/1015) Accurately ripped
 11     [b10ed7ea] (003/1019) Accurately ripped
 12     [c8b6d7d7] (003/1021) Accurately ripped
 13     [7a6ba509] (003/1021) Accurately ripped
 14     [290da5b4] (003/1022) Accurately ripped
 15     [51fbf867] (003/1020) Accurately ripped
 16     [d81e61e9] (003/1017) Accurately ripped
 17     [1880d48a] (003/1021) Accurately ripped
Offsetted by -706:
 01     [76c7efa3] (002/1014) Accurately ripped
 02     [7a0458e9] (002/1017) Accurately ripped
 03     [841e8847] (002/1018) Accurately ripped
 04     [1d73f6e0] (002/1015) Accurately ripped
 05     [204845a5] (002/1016) Accurately ripped
 06     [4c1e4fcc] (002/1015) Accurately ripped
 07     [0028bac1] (002/1020) Accurately ripped
 08     [04d9881e] (002/1025) Accurately ripped
 09     [8925a50a] (002/1018) Accurately ripped
 10     [829b27e6] (002/1015) Accurately ripped
 11     [917d226f] (002/1019) Accurately ripped
 12     [7d1ddb90] (002/1021) Accurately ripped
 13     [56c0b3e6] (002/1021) Accurately ripped
 14     [819a15ce] (002/1022) Accurately ripped
 15     [4e7c57c8] (002/1020) Accurately ripped
 16     [771e8d4d] (002/1017) Accurately ripped
 17     [aa773f47] (002/1021) Accurately ripped
Offsetted by -694:
 01     [5967ed7d] (004/1014) Accurately ripped
 02     [4a0f8d75] (004/1017) Accurately ripped
 03     [61b2e7d5] (004/1018) Accurately ripped
 04     [f520f660] (004/1015) Accurately ripped
 05     [098b1e6b] (003/1016) Accurately ripped
 06     [dac9dddd] (004/1015) Accurately ripped
 07     [10c5bf86] (005/1020) Accurately ripped
 08     [897b6463] (004/1025) Accurately ripped
 09     [f6409d0d] (004/1018) Accurately ripped
 10     [31813288] (004/1015) Accurately ripped
 11     [e917c38a] (004/1019) Accurately ripped
 12     [a5b16b6e] (004/1021) Accurately ripped
 13     [7572f71c] (004/1021) Accurately ripped
 14     [e0eba100] (004/1022) Accurately ripped
 15     [21bf200c] (004/1020) Accurately ripped
 16     [a2b04b74] (004/1017) Accurately ripped
 17     [54540e6d] (004/1021) Accurately ripped
Offsetted by -30:
 01     [93e1b2de] (008/1014) Accurately ripped
 02     [74ea455a] (008/1017) Accurately ripped
 03     [591ffa7c] (008/1018) Accurately ripped
 04     [c6c6e9e3] (008/1015) Accurately ripped
 05     [9ff1a5dd] (008/1016) Accurately ripped
 06     [6698b0bf] (008/1015) Accurately ripped
 07     [94e19f7b] (008/1020) Accurately ripped
 08     [925c8516] (008/1025) Accurately ripped
 09     [4b62f33d] (008/1018) Accurately ripped
 10     [abb0e934] (008/1015) Accurately ripped
 11     [f7fbc100] (009/1019) Accurately ripped
 12     [87d0d238] (009/1021) Accurately ripped
 13     [4e92d2f2] (009/1021) Accurately ripped
 14     [1d80d082] (009/1022) Accurately ripped
 15     [bf18b31f] (009/1020) Accurately ripped
 16     [18256e21] (009/1017) Accurately ripped
 17     [5c033891] (009/1021) Accurately ripped
Offsetted by -6:
 01     [90ef7288] (003/1014) Accurately ripped
 02     [cf36fb4d] (003/1017) Accurately ripped
 03     [983a6a39] (003/1018) Accurately ripped
 04     [6df7042a] (003/1015) Accurately ripped
 05     [df320e97] (003/1016) Accurately ripped
 06     [d19ac89e] (003/1015) Accurately ripped
 07     [937757db] (003/1020) Accurately ripped
 08     [c70380a0] (003/1025) Accurately ripped
 09     [75aaf765] (003/1018) Accurately ripped
 10     [509a8b43] (003/1015) Accurately ripped
 11     [cd196448] (003/1019) Accurately ripped
 12     [21b739f2] (003/1021) Accurately ripped
 13     [3bdecff1] (003/1021) Accurately ripped
 14     [8f555b8c] (003/1022) Accurately ripped
 15     [412f9b05] (003/1020) Accurately ripped
 16     [ce639594] (003/1017) Accurately ripped
 17     [c420c82a] (003/1021) Accurately ripped
Offsetted by 6:
 01     [9206c69f] (200/1014) Accurately ripped
 02     [cdb7532b] (200/1017) Accurately ripped
 03     [a6d0c577] (200/1018) Accurately ripped
 04     [949740ad] (200/1015) Accurately ripped
 05     [b6e72051] (200/1016) Accurately ripped
 06     [a76710c0] (200/1015) Accurately ripped
 07     [172fbcbf] (200/1020) Accurately ripped
 08     [9164ac35] (200/1025) Accurately ripped
 09     [afba5368] (200/1018) Accurately ripped
 10     [eb1779ad] (200/1015) Accurately ripped
 11     [ff6811b9] (200/1019) Accurately ripped
 12     [76de786f] (200/1021) Accurately ripped
 13     [055e91fa] (200/1021) Accurately ripped
 14     [12c51404] (200/1022) Accurately ripped
 15     [175904ef] (200/1020) Accurately ripped
 16     [b9996bff] (200/1017) Accurately ripped
 17     [79bb907a] (200/1021) Accurately ripped
Offsetted by -667:
 01     [e62692ae] (000/1014) No match (V2 was not tested)
 02     [e789af1c] (000/1017) No match (V2 was not tested)
 03     [80a37c8f] (000/1018) No match (V2 was not tested)
 04     [776af9e8] (000/1015) No match (V2 was not tested)
 05     [2aca2a82] (000/1016) No match (V2 was not tested)
 06     [9e752aa2] (000/1015) No match (V2 was not tested)
 07     [8216a0a7] (000/1020) No match (V2 was not tested)
 08     [6cf2ebbc] (000/1025) No match (V2 was not tested)
 09     [6f410f20] (000/1018) No match (V2 was not tested)
 10     [fefdc512] (000/1015) No match (V2 was not tested)
 11     [0d302f76] (000/1019) No match (V2 was not tested)
 12     [781005fd] (000/1021) No match (V2 was not tested)
 13     [bd9307eb] (000/1021) No match (V2 was not tested)
 14     [990f5127] (000/1022) No match (V2 was not tested)
 15     [db68986f] (000/1020) No match (V2 was not tested)
 16     [9fa2af19] (000/1017) No match (V2 was not tested)
 17     [51916078] (000/1021) No match (V2 was not tested)
Offsetted by -664:
 01     [45f7eeb8] (000/1014) No match (V2 was not tested)
 02     [2cc3bae7] (000/1017) No match (V2 was not tested)
 03     [3edffb3a] (000/1018) No match (V2 was not tested)
 04     [b51016c0] (000/1015) No match (V2 was not tested)
 05     [eea3dc7f] (000/1016) No match (V2 was not tested)
 06     [714c9cb1] (000/1015) No match (V2 was not tested)
 07     [376b37c0] (000/1020) No match (V2 was not tested)
 08     [5692fa9a] (000/1025) No match (V2 was not tested)
 09     [7abb0a09] (000/1018) No match (V2 was not tested)
 10     [60728c6c] (000/1015) No match (V2 was not tested)
 11     [9a9c212a] (000/1019) No match (V2 was not tested)
 12     [0d760020] (000/1021) No match (V2 was not tested)
 13     [a1eff09d] (000/1021) No match (V2 was not tested)
 14     [353e24ba] (000/1022) No match (V2 was not tested)
 15     [41c5ee73] (000/1020) No match (V2 was not tested)
 16     [4a735f9f] (000/1017) No match (V2 was not tested)
 17     [fbb8142d] (000/1021) No match (V2 was not tested)
Offsetted by -661:
 01     [4800819c] (002/1014) Accurately ripped
 02     [73dfc69c] (002/1017) Accurately ripped
 03     [0fea17ab] (002/1018) Accurately ripped
 04     [35f9edee] (000/1015) No match (V2 was not tested)
 05     [b083099e] (002/1016) Accurately ripped
 06     [721662b2] (002/1015) Accurately ripped
 07     [fabfca47] (002/1020) Accurately ripped
 08     [e233f431] (002/1025) Accurately ripped
 09     [0f940c80] (002/1018) Accurately ripped
 10     [fd581c5c] (000/1015) No match (V2 was not tested)
 11     [0455e2cb] (002/1019) Accurately ripped
 12     [1f669d99] (002/1021) Accurately ripped
 13     [8301415c] (002/1021) Accurately ripped
 14     [ee4b4437] (002/1022) Accurately ripped
 15     [3abdcc1f] (002/1020) Accurately ripped
 16     [d3a37414] (000/1017) No match (V2 was not tested)
 17     [a5d5c7d2] (002/1021) Accurately ripped
Offsetted by -552:
 01     [b9473f6f] (000/1014) No match (V2 was not tested)
 02     [4406bfa7] (000/1017) No match (V2 was not tested)
 03     [0201841a] (000/1018) No match (V2 was not tested)
 04     [8ed5277a] (000/1015) No match (V2 was not tested)
 05     [96a78c21] (000/1016) No match (V2 was not tested)
 06     [0b8aca5a] (000/1015) No match (V2 was not tested)
 07     [8508279e] (000/1020) No match (V2 was not tested)
 08     [f6985d21] (000/1025) No match (V2 was not tested)
 09     [556da0b3] (000/1018) No match (V2 was not tested)
 10     [f941f9f3] (000/1015) No match (V2 was not tested)
 11     [dbb8b77b] (000/1019) No match (V2 was not tested)
 12     [93d227e9] (000/1021) No match (V2 was not tested)
 13     [68f06688] (000/1021) No match (V2 was not tested)
 14     [f444908d] (000/1022) No match (V2 was not tested)
 15     [908d1796] (000/1020) No match (V2 was not tested)
 16     [bdfb788b] (000/1017) No match (V2 was not tested)
 17     [6aca1ef0] (000/1021) No match (V2 was not tested)
Offsetted by -78:
 01     [04fe1350] (000/1014) No match (V2 was not tested)
 02     [fd0f1c9d] (000/1017) No match (V2 was not tested)
 03     [173a1339] (000/1018) No match (V2 was not tested)
 04     [4ce9052c] (000/1015) No match (V2 was not tested)
 05     [0e243f38] (000/1016) No match (V2 was not tested)
 06     [b66a426d] (000/1015) No match (V2 was not tested)
 07     [d5e05ec2] (000/1020) No match (V2 was not tested)
 08     [1428bfc9] (000/1025) No match (V2 was not tested)
 09     [c9b6f8d3] (000/1018) No match (V2 was not tested)
 10     [3d2d334d] (000/1015) No match (V2 was not tested)
 11     [b778dc25] (000/1019) No match (V2 was not tested)
 12     [ed235092] (000/1021) No match (V2 was not tested)
 13     [8c935b94] (000/1021) No match (V2 was not tested)
 14     [bfc071e8] (000/1022) No match (V2 was not tested)
 15     [993316af] (000/1020) No match (V2 was not tested)
 16     [36abef9b] (000/1017) No match (V2 was not tested)
 17     [93ff1b6f] (000/1021) No match (V2 was not tested)
Offsetted by -60:
 01     [edf0c8bc] (000/1014) No match (V2 was not tested)
 02     [134f0536] (000/1017) No match (V2 was not tested)
 03     [d9b2f4f3] (000/1018) No match (V2 was not tested)
 04     [ff99cd3d] (000/1015) No match (V2 was not tested)
 05     [081114a6] (000/1016) No match (V2 was not tested)
 06     [8209ee37] (000/1015) No match (V2 was not tested)
 07     [d8a5b3db] (000/1020) No match (V2 was not tested)
 08     [e93ead30] (000/1025) No match (V2 was not tested)
 09     [dc0e441c] (000/1018) No match (V2 was not tested)
 10     [41c7b436] (000/1015) No match (V2 was not tested)
 11     [22f3fdf7] (000/1019) No match (V2 was not tested)
 12     [9e58b441] (000/1021) No match (V2 was not tested)
 13     [937e1d8a] (000/1021) No match (V2 was not tested)
 14     [0d881a69] (000/1022) No match (V2 was not tested)
 15     [cb226a9f] (000/1020) No match (V2 was not tested)
 16     [eb51e8b0] (000/1017) No match (V2 was not tested)
 17     [9dcc4586] (000/1021) No match (V2 was not tested)
Offsetted by -48:
 01     [e737f1c1] (000/1014) No match (V2 was not tested)
 02     [c0136298] (000/1017) No match (V2 was not tested)
 03     [478d21d6] (000/1018) No match (V2 was not tested)
 04     [0bd11df1] (000/1015) No match (V2 was not tested)
 05     [7ec3a91f] (000/1016) No match (V2 was not tested)
 06     [c8dbecd8] (000/1015) No match (V2 was not tested)
 07     [be6c832a] (000/1020) No match (V2 was not tested)
 08     [eb2e2254] (000/1025) No match (V2 was not tested)
 09     [1f9b6e09] (000/1018) No match (V2 was not tested)
 10     [e6f721b1] (000/1015) No match (V2 was not tested)
 11     [8b01994c] (000/1019) No match (V2 was not tested)
 12     [5a6c78e0] (000/1021) No match (V2 was not tested)
 13     [cdf259ad] (000/1021) No match (V2 was not tested)
 14     [3116eff4] (000/1022) No match (V2 was not tested)
 15     [b0d4ac77] (000/1020) No match (V2 was not tested)
 16     [a03666d8] (000/1017) No match (V2 was not tested)
 17     [4fa30d29] (000/1021) No match (V2 was not tested)
Offsetted by -25:
 01     [235ac3b9] (000/1014) No match (V2 was not tested)
 02     [e7eefa2e] (000/1017) No match (V2 was not tested)
 03     [4ea7ca5e] (000/1018) No match (V2 was not tested)
 04     [07a45c3e] (000/1015) No match (V2 was not tested)
 05     [0bc2454f] (000/1016) No match (V2 was not tested)
 06     [4ebb3bc3] (000/1015) No match (V2 was not tested)
 07     [58a7ec61] (000/1020) No match (V2 was not tested)
 08     [ba24a529] (000/1025) No match (V2 was not tested)
 09     [5124f11a] (000/1018) No match (V2 was not tested)
 10     [2f46fff0] (000/1015) No match (V2 was not tested)
 11     [e9232d20] (000/1019) No match (V2 was not tested)
 12     [e4178e95] (000/1021) No match (V2 was not tested)
 13     [269c4da0] (000/1021) No match (V2 was not tested)
 14     [a99c0dfc] (000/1022) No match (V2 was not tested)
 15     [bfe57ffc] (000/1020) No match (V2 was not tested)
 16     [936d3ece] (000/1017) No match (V2 was not tested)
 17     [d1706119] (000/1021) No match (V2 was not tested)
Offsetted by -19:
 01     [b289f71a] (000/1014) No match (V2 was not tested)
 02     [93127cd6] (000/1017) No match (V2 was not tested)
 03     [c891d8d1] (000/1018) No match
 04     [b32e1ce8] (000/1015) No match
 05     [d3927253] (000/1016) No match
 06     [6f050968] (000/1015) No match
 07     [22422bb7] (000/1020) No match (V2 was not tested)
 08     [43a46908] (000/1025) No match
 09     [996a5eb2] (000/1018) No match (V2 was not tested)
 10     [cb0ced7b] (000/1015) No match
 11     [0c1f6ce3] (000/1019) No match
 12     [fa268a46] (000/1021) No match
 13     [5c3dd70b] (000/1021) No match
 14     [87210cbd] (000/1022) No match
 15     [805ec8f3] (000/1020) No match
 16     [6b1ae9b5] (000/1017) No match
 17     [2b57c502] (000/1021) No match
Offsetted by -18:
 01     [07932db4] (000/1014) No match (V2 was not tested)
 02     [76ac4b87] (000/1017) No match (V2 was not tested)
 03     [018900cd] (000/1018) No match (V2 was not tested)
 04     [2e8d6b74] (000/1015) No match (V2 was not tested)
 05     [e2150940] (000/1016) No match (V2 was not tested)
 06     [7e7192a9] (000/1015) No match (V2 was not tested)
 07     [06320c55] (000/1020) No match (V2 was not tested)
 08     [9a590c6b] (000/1025) No match (V2 was not tested)
 09     [34515cdf] (000/1018) No match (V2 was not tested)
 10     [eaa62359] (000/1015) No match (V2 was not tested)
 11     [6667e665] (000/1019) No match (V2 was not tested)
 12     [74b08be2] (000/1021) No match (V2 was not tested)
 13     [440cd5f8] (000/1021) No match (V2 was not tested)
 14     [99f52774] (000/1022) No match (V2 was not tested)
 15     [ac754f49] (000/1020) No match (V2 was not tested)
 16     [820d5e51] (000/1017) No match (V2 was not tested)
 17     [0fae0054] (000/1021) No match (V2 was not tested)
Offsetted by -12:
 01     [93e3b1d0] (000/1014) No match (V2 was not tested)
 02     [cf402400] (000/1017) No match (V2 was not tested)
 03     [3106e286] (000/1018) No match (V2 was not tested)
 04     [35345ac2] (000/1015) No match (V2 was not tested)
 05     [0620ce47] (000/1016) No match (V2 was not tested)
 06     [d277e919] (000/1015) No match (V2 was not tested)
 07     [bad23499] (000/1020) No match (V2 was not tested)
 08     [261d40ec] (000/1025) No match (V2 was not tested)
 09     [2dbcdf9f] (000/1018) No match (V2 was not tested)
 10     [f6c7e764] (000/1015) No match (V2 was not tested)
 11     [2e1c3c2d] (000/1019) No match (V2 was not tested)
 12     [f149740c] (000/1021) No match (V2 was not tested)
 13     [9a098b71] (000/1021) No match (V2 was not tested)
 14     [401a09e1] (000/1022) No match (V2 was not tested)
 15     [2dab17db] (000/1020) No match (V2 was not tested)
 16     [dde0bd02] (000/1017) No match (V2 was not tested)
 17     [69ca6438] (000/1021) No match (V2 was not tested)
Offsetted by 12:
 01     [5dc8e6b8] (000/1014) No match (V2 was not tested)
 02     [23027ef1] (000/1017) No match (V2 was not tested)
 03     [56e2d464] (000/1018) No match (V2 was not tested)
 04     [6e4f196d] (000/1015) No match (V2 was not tested)
 05     [3c2c7661] (000/1016) No match (V2 was not tested)
 06     [f4a69ccb] (000/1015) No match (V2 was not tested)
 07     [dbc7e328] (000/1020) No match (V2 was not tested)
 08     [78e4ed47] (000/1025) No match (V2 was not tested)
 09     [51452a92] (000/1018) No match (V2 was not tested)
 10     [2dc2299e] (000/1015) No match (V2 was not tested)
 11     [3063959d] (000/1019) No match (V2 was not tested)
 12     [9fbcb8a0] (000/1021) No match (V2 was not tested)
 13     [e56e5283] (000/1021) No match (V2 was not tested)
 14     [cc224ba8] (000/1022) No match (V2 was not tested)
 15     [cbca8577] (000/1020) No match (V2 was not tested)
 16     [96698586] (000/1017) No match (V2 was not tested)
 17     [d50bf4c6] (000/1021) No match (V2 was not tested)

Track Peak [ CRC32  ] [W/O NULL] [  LOG   ]
 --   97.2 [56DDC440] [A72CC1D0]   CRC32   
 01   95.8 [4A03C7EA] [465D14DB]           
 02   95.8 [29E17E18] [1A3C1B9D]           
 03   95.8 [2F2F2300] [C8301B65]           
 04   96.6 [DDDBB540] [1B24AF3E]           
 05   95.8 [68EDAC9B] [ABE9F14C]           
 06   96.1 [520373DA] [B0A6816D]           
 07   95.8 [0C810ABF] [875906E7]           
 08   87.5 [0B2B46AC] [B58121BE]           
 09   95.8 [9A087EAD] [3E65F1B9]           
 10   93.9 [B88497FE] [8CDAD8D6]           
 11   96.0 [C6719AFD] [D1D50F6D]           
 12   95.8 [E1137324] [AE206F29]           
 13   95.9 [748235B2] [20120FCA]           
 14   95.8 [756A0045] [8F92B275]           
 15   95.8 [EBB40D8B] [9E7432E0]           
 16   97.2 [E574617D] [4782AB62]           
 17   95.8 [45E0E77C] [70D221E3]           



Create a new paste based on this one


Comments: