[ create a new paste ] login | about

Link: http://codepad.org/YDSZntf4    [ raw code | fork ]

Plain Text, pasted on May 8:
foobar2000 1.4.1 / Dynamic Range Meter 1.1.1
log date: 2019-05-07 19:25:27

--------------------------------------------------------------------------------
Analyzed: Miles Davis / ?
--------------------------------------------------------------------------------

DR         Peak         RMS     Duration Track
--------------------------------------------------------------------------------
DR15      -3.35 dB   -22.48 dB      8:32 01-If I Were A Bell
DR15      -6.40 dB   -24.31 dB     10:39 02-Oleo
DR16      -5.36 dB   -26.76 dB     10:19 03-My Funny Valentine
DR14      -5.63 dB   -23.77 dB     10:57 04-Straight, No Chaser
--------------------------------------------------------------------------------

Number of tracks:  4
Official DR value: DR15

Samplerate:        2822400 Hz / PCM Samplerate: 176400 Hz
Channels:          2
Bits per sample:   1
Bitrate:           5645 kbps
Codec:             DSD64
================================================================================




Create a new paste based on this one


Comments: