[ create a new paste ] login | about

Link: http://codepad.org/YNn6ZZ9L    [ raw code | fork ]

Plain Text, pasted on Dec 19:
[CUETools log; Date: 12/19/2018 7:54:04 AM; Version: 2.1.5]
[CTDB TOCID: j8sSx_3lx1m1Di_dPLkf.b74VAc-] found.
Track | CTDB Status
  1   | (73/73) Accurately ripped
  2   | (73/73) Accurately ripped
  3   | (73/73) Accurately ripped
  4   | (73/73) Accurately ripped
  5   | (73/73) Accurately ripped
  6   | (73/73) Accurately ripped
  7   | (73/73) Accurately ripped
  8   | (73/73) Accurately ripped
[AccurateRip ID: 000cdc7c-00550c29-67095608] found.
Track   [  CRC   |   V2   ] Status
 01     [9a99180b|1b58a8bc] (00+15/15) Accurately ripped
 02     [cac1b9ae|b7a3f7ce] (00+15/15) Accurately ripped
 03     [4a551934|c1afa28d] (00+15/15) Accurately ripped
 04     [903dbffa|36e3664e] (00+15/15) Accurately ripped
 05     [2dfd1d5f|c3bef3cb] (00+15/15) Accurately ripped
 06     [fa44f3f6|c9f5c949] (00+15/15) Accurately ripped
 07     [df5ce151|9114956c] (00+15/15) Accurately ripped
 08     [5411288d|d49bba61] (00+15/15) Accurately ripped

Track Peak [ CRC32  ] [W/O NULL] [  LOG   ]
 --   92.9 [6D32520C] [D078925E]   CRC32   
 01   92.9 [C6473C2D] [BEE5DD12]           
 02   92.6 [3BDFEA57] [173629F5]           
 03   92.8 [35337994] [E3210426]           
 04   92.5 [95A76096] [26586BAC]           
 05   92.6 [3E898B3F] [43A4E553]           
 06   92.6 [3913190B] [D525514B]           
 07   92.5 [83DF1B8B] [88D06916]           
 08   92.9 [9F383211] [EF807206]           



Create a new paste based on this one


Comments: