[ create a new paste ] login | about

Link: http://codepad.org/YQNVCD63    [ raw code | fork ]

Plain Text, pasted on Nov 26:
[CUETools log; Date: 11/25/2018 12:48:11 PM; Version: 2.1.5]
[CTDB TOCID: bFuGoylttAqPpXNJd5dabpsbCQo-] found.
Track | CTDB Status
  1   | (73/73) Accurately ripped
  2   | (73/73) Accurately ripped
  3   | (73/73) Accurately ripped
  4   | (73/73) Accurately ripped
  5   | (73/73) Accurately ripped
  6   | (73/73) Accurately ripped
  7   | (73/73) Accurately ripped
  8   | (73/73) Accurately ripped
  9   | (73/73) Accurately ripped
 10   | (73/73) Accurately ripped
 11   | (73/73) Accurately ripped
 12   | (72/73) Accurately ripped
[AccurateRip ID: 0021a07c-0132d32f-9410020c] found.
Track   [  CRC   |   V2   ] Status
 01     [dbec05f7|55adf460] (0+0/4) No match
 02     [8fa8d6c0|b154c612] (0+0/4) No match
 03     [a3560fb7|cf16be63] (0+0/4) No match
 04     [64615e57|8983d417] (0+0/4) No match
 05     [6bc46f2f|93a31047] (0+0/4) No match
 06     [30694234|9f826eb4] (0+0/4) No match
 07     [6f354a2e|037ed296] (0+0/4) No match
 08     [90976ca4|e838a45d] (0+0/4) No match
 09     [adc3c1bd|03ffc410] (0+0/4) No match
 10     [22d07e1a|77fd94b5] (0+0/4) No match
 11     [436781b9|12f7aff0] (0+0/4) No match
 12     [4ee3a944|eacb763c] (0+0/4) No match
Offsetted by -12:
 01     [8e123647] (0/4) No match (V2 was not tested)
 02     [deb5f75a] (0/4) No match (V2 was not tested)
 03     [58e776a6] (0/4) No match (V2 was not tested)
 04     [b222c0dd] (0/4) No match (V2 was not tested)
 05     [e3897424] (0/4) No match (V2 was not tested)
 06     [6f20c0c4] (0/4) No match (V2 was not tested)
 07     [148174c0] (0/4) No match (V2 was not tested)
 08     [807e49ec] (0/4) No match (V2 was not tested)
 09     [f642bb55] (0/4) No match (V2 was not tested)
 10     [377e7f03] (0/4) No match (V2 was not tested)
 11     [18160a01] (0/4) No match (V2 was not tested)
 12     [bbf6e945] (0/4) No match (V2 was not tested)

Track Peak [ CRC32  ] [W/O NULL] [  LOG   ]
 --  100.0 [ACD64A1A] [C6A8E125]   CRC32   
 01   96.4 [D4B3C4C3] [DA62782A]           
 02   96.5 [6A0E15A3] [51CF1044]           
 03  100.0 [7D6669ED] [57B987E2]           
 04  100.0 [6F8A94E2] [161B3E93]           
 05  100.0 [E8EBD39A] [9199E4B2]           
 06   99.7 [E2071FFB] [288EC617]           
 07   98.0 [EE80A881] [25D1FD4D]           
 08   97.4 [FB2A7EEA] [7E516758]           
 09  100.0 [99DC8F7E] [CE85DB79]           
 10   98.1 [631F28E5] [ADEE3A13]           
 11   89.9 [202E4B65] [059A4227]           
 12   98.7 [69F3F1C3] [F68E2F2A]           



Create a new paste based on this one


Comments: