[ create a new paste ] login | about

Link: http://codepad.org/YQt4uh7E    [ raw code | fork ]

Plain Text, pasted on Feb 3:
foobar2000 1.6 / Dynamic Range Meter 1.1.1
log date: 2021-02-03 04:42:23

--------------------------------------------------------------------------------
Analyzed: Art Tatum / Piano Starts Here - Live At The Shrine
--------------------------------------------------------------------------------

DR         Peak         RMS     Duration Track
--------------------------------------------------------------------------------
DR13      -4.21 dB   -22.66 dB      3:16 01-Tea For Two (Multichannel / 5.0 Surround Mix)
DR13      -5.38 dB   -23.80 dB      2:42 02-St. Louis Blues (Multichannel / 5.0 Surround Mix)
DR13      -4.25 dB   -22.56 dB      2:22 03-Tiger Rag (Multichannel / 5.0 Surround Mix)
DR12      -3.55 dB   -22.74 dB      3:20 04-Sophisticated Lady (Multichannel / 5.0 Surround Mix)
DR16      -0.75 dB   -24.91 dB      3:48 05-Humoresque (Multichannel / 5.0 Surround Mix)
DR16      -1.42 dB   -22.62 dB      2:33 06-Tatum Pole Boogie (Multichannel / 5.0 Surround Mix)
DR17      -3.07 dB   -24.47 dB      3:35 07-Someone To Watch Over Me (Multichannel / 5.0 Surround Mix)
DR15      -1.61 dB   -22.23 dB      2:30 08-How High The Moon (Multichannel / 5.0 Surround Mix)
DR17      -0.87 dB   -24.68 dB      3:28 09-Yesterdays (Multichannel / 5.0 Surround Mix)
DR17      -2.39 dB   -25.07 dB      3:17 10-Willow Weep For Me (Multichannel / 5.0 Surround Mix)
DR15      -1.75 dB   -26.42 dB      1:06 11-The Kerry Dance (Multichannel / 5.0 Surround Mix)
DR17      -0.84 dB   -24.55 dB      3:59 12-Gershwin Medley (Multichannel / 5.0 Surround Mix)
DR16      -3.61 dB   -24.75 dB      2:40 13-I Know That You Know (Multichannel / 5.0 Surround Mix)
--------------------------------------------------------------------------------

Number of tracks:  13
Official DR value: DR15

Samplerate:        88200 Hz
Channels:          5
Bits per sample:   24
Bitrate:           5462 kbps
Codec:             FLAC
================================================================================




Create a new paste based on this one


Comments: