[ create a new paste ] login | about

Link: http://codepad.org/YSUKZ8eF    [ raw code | fork ]

Plain Text, pasted on Dec 5:
[CUETools log; Date: 12/4/2016 3:39:38 PM; Version: 2.1.5]
[CTDB TOCID: 4QUyDddpwYZUZFHAFZlAtIq2sdk-] found.
Track | CTDB Status
  1   | (144/149) Accurately ripped
  2   | (146/149) Accurately ripped
  3   | (146/149) Accurately ripped
  4   | (144/149) Accurately ripped
  5   | (145/149) Accurately ripped
  6   | (145/149) Accurately ripped
  7   | (146/149) Accurately ripped
  8   | (145/149) Accurately ripped
  9   | (145/149) Accurately ripped
 10   | (146/149) Accurately ripped
 11   | (145/149) Accurately ripped
 12   | (143/149) Accurately ripped
 13   | (146/149) Accurately ripped
 14   | (142/149) Accurately ripped
[AccurateRip ID: 0023ccac-0186bf7d-ae12220e] found.
Track   [  CRC   |   V2   ] Status
 01     [1aaf2e39|419a50d9] (000+005/224) Accurately ripped
 02     [ed4798de|e2e796ec] (000+005/223) Accurately ripped
 03     [b0551b17|d2582666] (000+005/225) Accurately ripped
 04     [e006103e|b627e1d7] (000+005/227) Accurately ripped
 05     [0e6061fa|506795f6] (000+005/223) Accurately ripped
 06     [08aaca0e|cdf9f3cb] (000+005/225) Accurately ripped
 07     [b049da16|ab56c09d] (000+005/224) Accurately ripped
 08     [6bcbc689|26626f2a] (000+005/225) Accurately ripped
 09     [39bd2412|339f5c10] (000+005/223) Accurately ripped
 10     [2bad3a0d|3671ea39] (000+005/222) Accurately ripped
 11     [72d73abe|42501238] (000+005/223) Accurately ripped
 12     [8c69a34e|a2052f7d] (000+005/212) Accurately ripped
 13     [2be8d14c|6bce1093] (000+005/223) Accurately ripped
 14     [f5131b4a|90928102] (000+005/217) Accurately ripped
Offsetted by -6:
 01     [ddd02314] (107/224) Accurately ripped
 02     [9d8e94e5] (106/223) Accurately ripped
 03     [07f5492a] (107/225) Accurately ripped
 04     [bcb1de68] (109/227) Accurately ripped
 05     [9a9a601f] (107/223) Accurately ripped
 06     [201207c5] (107/225) Accurately ripped
 07     [58f46065] (106/224) Accurately ripped
 08     [98d6e079] (107/225) Accurately ripped
 09     [daea4a8f] (105/223) Accurately ripped
 10     [c2367ae8] (105/222) Accurately ripped
 11     [7d96dba3] (106/223) Accurately ripped
 12     [ec318b74] (100/212) Accurately ripped
 13     [91632049] (106/223) Accurately ripped
 14     [3b36eb42] (103/217) Accurately ripped
Offsetted by -72:
 01     [8c1d5cd6] (000/224) No match
 02     [bd42e99c] (000/223) No match
 03     [be1e32b7] (000/225) No match
 04     [338b95a2] (000/227) No match
 05     [595f21ab] (000/223) No match
 06     [d0fdc166] (000/225) No match
 07     [882954e6] (000/224) No match
 08     [d9ec0467] (000/225) No match
 09     [1d16cb82] (000/223) No match
 10     [d8c081f7] (000/222) No match
 11     [a303ca65] (000/223) No match
 12     [13958ed8] (000/212) No match
 13     [5661acba] (000/223) No match
 14     [79671a6f] (000/217) No match (V2 was not tested)

Track Peak [ CRC32  ] [W/O NULL] [  LOG   ]
 --   98.8 [A9A8F1A7] [BA15CB9D]   CRC32   
 01   89.0 [062ED286] [F0C5E086]           
 02   98.8 [957E6365] [01EEF8EB]           
 03   98.8 [F746F75B] [B1B20126]           
 04   98.8 [3A68B7F7] [E0C3DFE6]           
 05   98.8 [C0E3BF68] [BE395D5C]           
 06   98.8 [4BF60502] [0AB57AFB]           
 07   91.2 [EB87DB6D] [C6B312E5]           
 08   98.8 [3921E2E2] [A569CBF8]           
 09   98.8 [8AE8C0D0] [BEED77E3]           
 10   98.8 [61C27207] [A04D55AE]           
 11   98.8 [2B0D5B97] [A4C00C81]           
 12   98.8 [F4DE0BE1] [EF1BD4F9]           
 13   91.4 [3C62C619] [39130309]           
 14   89.1 [B6CF02DC] [183BFCCD]           



Create a new paste based on this one


Comments: