[ create a new paste ] login | about

Link: http://codepad.org/YSnUGdRE    [ raw code | fork ]

Plain Text, pasted on Jul 11:
Exact Audio Copy V1.3 from 2. September 2016

EAC extraction logfile from 30. June 2018, 19:01

The Flower Kings / Banks Of Eden

Used drive  : PLEXTOR BD-R  PX-B950SA   Adapter: 1  ID: 1

Read mode               : Secure
Utilize accurate stream : Yes
Defeat audio cache      : Yes
Make use of C2 pointers : No

Read offset correction                      : 6
Overread into Lead-In and Lead-Out          : No
Fill up missing offset samples with silence : Yes
Delete leading and trailing silent blocks   : No
Null samples used in CRC calculations       : Yes
Used interface                              : Native Win32 interface for Win NT & 2000

Used output format : Internal WAV Routines
Sample format      : 44.100 Hz; 16 Bit; Stereo


TOC of the extracted CD

     Track |   Start  |  Length  | Start sector | End sector 
    ---------------------------------------------------------
        1  |  0:00.00 | 25:26.41 |         0    |   114490   
        2  | 25:26.41 |  7:25.55 |    114491    |   147920   
        3  | 32:52.21 |  6:09.29 |    147921    |   175624   
        4  | 39:01.50 |  7:06.33 |    175625    |   207607   
        5  | 46:08.08 |  7:52.01 |    207608    |   243008   


Range status and errors

Selected range

     Filename C:\Flower Kings\2018 A Kingdom Of Colours II (9CD Box Set InsideOut Music)\2012 Banks Of Eden\The Flower Kings - Banks Of Eden.wav

     Peak level 98.8 %
     Extraction speed 7.3 X
     Range quality 100.0 %
     Test CRC 7C3C02D2
     Copy CRC 7C3C02D2
     Copy OK

No errors occurred

 
AccurateRip summary
 
Track  1  accurately ripped (confidence 78)  [791AA3F5]  (AR v2)
Track  2  accurately ripped (confidence 79)  [E396B4B3]  (AR v2)
Track  3  accurately ripped (confidence 77)  [8A8D3582]  (AR v2)
Track  4  accurately ripped (confidence 75)  [2698FE6B]  (AR v2)
Track  5  accurately ripped (confidence 76)  [D333AED2]  (AR v2)
 
All tracks accurately ripped

End of status report

---- CUETools DB Plugin V2.1.6

[CTDB TOCID: QSsIpZVbH21Afpmthig37d0dIRA-] found
Submit result: QSsIpZVbH21Afpmthig37d0dIRA- has been confirmed
Track | CTDB Status
  1   | (127/148) Accurately ripped, or (21/148) differs in 1 samples @08:22:67
  2   | (148/148) Accurately ripped
  3   | (148/148) Accurately ripped
  4   | (148/148) Accurately ripped
  5   | (145/148) Accurately ripped


==== Log checksum B650F6BCF1206452C644DBA4D4D38739FF3B70A21B0A3CAA7C8B30FCAFCC4FBC ====



Create a new paste based on this one


Comments: